<?xml version="1.0" standalone="no"?>
<!DOCTYPE svg PUBLIC "-//W3C//DTD SVG 1.1//EN" "http://www.w3.org/Graphics/SVG/1.1/DTD/svg11.dtd" >
<svg xmlns="http://www.w3.org/2000/svg">
<metadata></metadata>
<defs>
<font id="caecilia_lt_std75_bold" horiz-adv-x="1214" >
<font-face units-per-em="2048" ascent="1575" descent="-473" />
<missing-glyph horiz-adv-x="606" />
<glyph unicode="&#xfb01;" horiz-adv-x="1290" d="M61 897v168h162l4 145q2 104 38 178t95.5 121t140.5 68.5t175 21.5q88 0 150.5 -11t121.5 -23v-168q-41 10 -105.5 16t-129.5 6q-137 0 -194.5 -64.5t-61.5 -168.5l-4 -121h624l-4 -897h144v-168h-512v168h139l4 729h-395l-4 -729h143v-168h-502v168h129l4 729h-162z" />
<glyph unicode="&#xfb02;" horiz-adv-x="1327" d="M61 897v168h162l4 145q2 104 38 178t95.5 121t140.5 68.5t175 21.5q63 0 114.5 -7t92.5 -17h235l-8 -1407h143v-168h-501v168h129l8 1227q-29 10 -73 17t-114 7q-66 0 -111.5 -18.5t-75.5 -50t-43 -74.5t-15 -90l-4 -121h249v-168h-249l-4 -729h143v-168h-502v168h129 l4 729h-162z" />
<glyph horiz-adv-x="2048" />
<glyph horiz-adv-x="2048" />
<glyph unicode="&#xd;" horiz-adv-x="606" />
<glyph unicode=" "  horiz-adv-x="606" />
<glyph unicode="&#x09;" horiz-adv-x="606" />
<glyph unicode="&#xa0;" horiz-adv-x="606" />
<glyph unicode="!" horiz-adv-x="606" d="M145 127q0 66 46.5 112t111.5 46q66 0 112 -46t46 -112t-46 -112t-112 -46t-112 46t-46 112zM170 1575h266l-24 -1102h-217z" />
<glyph unicode="&#x22;" horiz-adv-x="985" d="M184 1485q0 47 34 80.5t81 33.5t81 -33.5t34 -80.5q0 -39 -5.5 -92.5t-15.5 -159.5l-20 -256q-4 -43 -27.5 -58.5t-46.5 -15.5t-46.5 15.5t-27.5 58.5l-20 256q-10 106 -15.5 159.5t-5.5 92.5zM571 1485q0 47 34 80.5t81 33.5t81 -33.5t34 -80.5q0 -39 -5 -92.5 t-16 -159.5l-20 -256q-4 -43 -27.5 -58.5t-46.5 -15.5t-46.5 15.5t-27.5 58.5l-20 256q-10 106 -15.5 159.5t-5.5 92.5z" />
<glyph unicode="#" horiz-adv-x="1212" d="M102 430v143h207l39 287h-186v144h207l61 430h143l-61 -430h268l62 430h143l-61 -430h186v-144h-207l-39 -287h187v-143h-207l-62 -430h-143l61 430h-268l-61 -430h-144l62 430h-187zM453 573h268l39 287h-268z" />
<glyph unicode="$" horiz-adv-x="1212" d="M59 1030q0 106 41 186t106.5 134.5t150.5 82t171 31.5l4 265h156l-4 -265q117 -4 215 -25.5t164 -41.5v-318h-193v172q-31 10 -81 22.5t-105 10.5l-4 -469l123 -35q82 -23 146.5 -51.5t109.5 -71.5t69.5 -106.5t24.5 -155.5q0 -96 -35 -170.5t-97.5 -128t-151.5 -86.5 t-195 -41l-4 -250h-156l4 250q-68 0 -135.5 5.5t-127.5 13.5t-109.5 19t-82.5 24v352h205v-203q41 -10 107.5 -20t144.5 -10l4 483l-147 47q-143 39 -230.5 124t-87.5 226zM289 1065q0 -55 34.5 -108.5t133.5 -79.5l67 -19l4 426q-117 -14 -176 -75.5t-63 -143.5zM674 150 q125 14 187.5 72.5t62.5 156.5q0 47 -14.5 80t-39 55.5t-58.5 36.5t-73 24l-57 17z" />
<glyph unicode="%" horiz-adv-x="1705" d="M90 1128q0 70 23.5 130.5t68.5 106.5t108.5 72.5t143.5 26.5q70 0 129.5 -20.5t102.5 -61.5t67.5 -103t24.5 -146q0 -152 -90 -244t-244 -92q-150 0 -242 89t-92 242zM258 1130q2 -86 42 -138t124 -52q86 0 126 52t40 138t-37 138.5t-129 52.5q-82 0 -125 -52t-41 -139z M303 -37l944 1587l133 -80l-944 -1587zM948 301q0 70 23.5 130.5t68.5 106.5t108.5 72.5t143.5 26.5q70 0 129.5 -20.5t102.5 -61.5t67.5 -103.5t24.5 -146.5q0 -152 -90 -244t-244 -92q-150 0 -242 89t-92 243zM1116 303q2 -86 42 -138t124 -52q86 0 126 52t40 138 t-37 138.5t-129 52.5q-82 0 -125 -52.5t-41 -138.5z" />
<glyph unicode="&#x26;" horiz-adv-x="1554" d="M121 383q0 63 17.5 117.5t48 100.5t71.5 84t86 69l74 51l-60 65q-59 66 -90.5 125.5t-31.5 141.5q0 53 22.5 110.5t69.5 104.5t122.5 76.5t184.5 29.5q88 0 151.5 -25.5t105.5 -66.5t61.5 -93t19.5 -106q0 -59 -17.5 -105t-45 -84t-64.5 -68.5t-76 -59.5l-76 -57 l371 -379q20 27 37.5 66.5t29 82.5t17.5 85t6 73h-139v156h450v-156h-131q0 -57 -12 -118.5t-31.5 -119t-46 -107.5t-57.5 -85q41 -47 94 -85t117 -38q39 0 67 6v-168q-41 -6 -94 -6q-72 0 -133 17.5t-121 76.5l-51 53q-37 -37 -79 -68.5t-96 -55t-123 -36t-159 -12.5 q-119 0 -210 36t-153.5 94.5t-94 131t-31.5 146.5zM338 418q0 -55 21.5 -103.5t62.5 -83t98.5 -55t128.5 -20.5q57 0 99.5 8t76 23.5t60 37t55.5 45.5l-403 414l-50 -33q-63 -41 -106 -95t-43 -138zM428 1149q0 -59 33 -107.5t80 -95.5l34 -37l43 29q31 18 60 39.5 t51.5 47.5t36.5 56.5t14 67.5q0 66 -41 110t-125 44t-135 -47.5t-51 -106.5z" />
<glyph unicode="'" horiz-adv-x="606" d="M188 1485q0 47 34 80.5t81 33.5t81 -33.5t34 -80.5q0 -39 -5 -92.5t-16 -159.5l-20 -256q-4 -43 -27.5 -58.5t-46.5 -15.5t-46.5 15.5t-27.5 58.5l-20 256q-10 106 -15.5 159.5t-5.5 92.5z" />
<glyph unicode="(" horiz-adv-x="606" d="M98 530q0 156 29 302.5t77 280.5t111.5 251t135.5 213l32 43l156 -92l-29 -43q-59 -90 -109 -200.5t-86 -233.5t-55.5 -256t-19.5 -265q0 -274 63.5 -508.5t196.5 -443.5l29 -45l-160 -92l-29 37q-74 96 -136 220t-108 261t-72 283.5t-26 287.5z" />
<glyph unicode=")" horiz-adv-x="606" d="M-33 -467l29 43q59 88 109.5 199.5t86 234.5t55 255t19.5 265q0 274 -63.5 509t-196.5 444l-29 45l160 92l29 -37q74 -96 136.5 -220t108.5 -261t71.5 -283.5t25.5 -288.5q0 -156 -28.5 -302t-77 -280t-113 -251t-133.5 -213l-33 -43z" />
<glyph unicode="*" horiz-adv-x="720" d="M45 1165l236 95l-236 86l76 137l198 -152l-32 244h159l-38 -244l192 152l76 -137l-227 -86l227 -95l-76 -127l-192 150l38 -250h-159l32 250l-198 -150z" />
<glyph unicode="+" horiz-adv-x="1228" d="M96 434v168h434v434h168v-434h435v-168h-435v-434h-168v434h-434z" />
<glyph unicode="," horiz-adv-x="606" d="M92 -309l35 35q45 45 74.5 89t29.5 97q0 43 -16 73.5t-36.5 57.5t-37 52.5t-16.5 60.5q0 20 9 42.5t27.5 42t46.5 32t64 12.5q45 0 81 -20.5t59.5 -54.5t36 -76t12.5 -85t-10.5 -93t-33 -102.5t-58 -103.5t-85.5 -94l-77 -68z" />
<glyph unicode="-" horiz-adv-x="833" d="M135 479v205h563v-205h-563z" />
<glyph unicode="." horiz-adv-x="606" d="M145 127q0 66 46.5 112t111.5 46q66 0 112 -46t46 -112t-46 -112t-112 -46t-112 46t-46 112z" />
<glyph unicode="/" horiz-adv-x="757" d="M-4 -109l614 1708l152 -57l-615 -1708z" />
<glyph unicode="0" horiz-adv-x="1212" d="M86 688q0 141 27.5 280.5t90 249t164 178t250.5 68.5q154 0 253.5 -69.5t155.5 -175t77.5 -232.5t21.5 -239q0 -158 -27.5 -298.5t-91 -248t-167 -170t-252.5 -62.5q-133 0 -227.5 48.5t-156 140.5t-90 226t-28.5 304zM328 692q0 -113 13 -212t46 -173t84 -115.5 t129 -41.5q80 0 134 46t88 123.5t48.5 181t14.5 218.5q0 283 -64.5 424t-206.5 141q-78 0 -132 -45t-88 -125t-50 -188.5t-16 -233.5z" />
<glyph unicode="1" horiz-adv-x="1212" d="M123 1135l487 299h181l-9 -1266h299v-168h-807v168h279l8 1051q-23 -20 -42 -37t-42 -31l-260 -172z" />
<glyph unicode="2" horiz-adv-x="1212" d="M96 0v168l56 43q49 39 119.5 96.5t145.5 125t148.5 144t133 156.5t95 161t35.5 157q0 96 -55 158.5t-182 62.5q-78 0 -128 -30t-79 -72t-41 -86t-12 -70h-230q0 55 22.5 133t80 148.5t153 119.5t242.5 49q96 0 180 -26.5t145.5 -77.5t97.5 -128t36 -177 q0 -127 -65.5 -251t-163 -235.5t-208 -209t-200.5 -171.5v-4q29 4 62.5 6.5t93.5 2.5h532v-193h-1014z" />
<glyph unicode="3" horiz-adv-x="1212" d="M111 1057q0 45 22.5 114.5t77.5 135t150.5 111.5t242.5 46q113 0 196 -27.5t137 -75.5t80.5 -113.5t26.5 -139.5q0 -78 -24.5 -136.5t-66.5 -101.5t-96 -70.5t-114 -39.5v-4q76 -6 141.5 -31t114 -69t76 -106.5t27.5 -141.5q0 -92 -33 -173t-103.5 -139.5t-180 -92.5 t-261.5 -34q-84 0 -148.5 8.5t-113.5 20.5t-84 26.5t-59 24.5v219q66 -35 162 -70.5t231 -35.5q68 0 131.5 12t111.5 41t76.5 76t28.5 119q0 76 -36 123t-90 72.5t-118.5 33.5t-121.5 8h-82v168h26q59 0 124 13.5t118 46t88 85t35 132.5q0 90 -58.5 141t-156.5 51 q-76 0 -124 -24.5t-76 -60.5t-38 -75t-10 -67h-229z" />
<glyph unicode="4" horiz-adv-x="1212" d="M51 401v181l598 852h279l-8 -852h270v-181h-270l-5 -233h170v-168h-536v168h151l5 233h-654zM274 578q27 2 52.5 3t52.5 1h326l4 628l-4 4z" />
<glyph unicode="5" horiz-adv-x="1212" d="M141 31v192q16 -6 45 -16t71 -20.5t96.5 -17.5t123.5 -7q174 0 263 71.5t89 206.5q0 96 -52 153.5t-139 88.5t-199.5 40t-231.5 9h-37l8 703h830v-181h-600l-9 -342h35q90 0 200.5 -17t208 -67.5t163 -140.5t65.5 -233q0 -104 -40 -193.5t-113.5 -154t-177 -100.5 t-228.5 -36q-113 0 -206 16.5t-165 45.5z" />
<glyph unicode="6" horiz-adv-x="1212" d="M102 635q0 160 37 309.5t122 265t224.5 185t343.5 69.5q59 0 119 -9t99 -19l30 -11l-16 -180q-29 10 -87.5 24.5t-144.5 14.5q-123 0 -210 -36t-145 -104.5t-92 -167.5t-50 -224l4 -4q20 25 51 52t72 49.5t93 38t118 15.5q98 0 179 -29.5t139.5 -86t90 -136.5t31.5 -180 q0 -117 -36 -210t-100.5 -157.5t-154.5 -99.5t-201 -35q-147 0 -246.5 60.5t-158.5 156t-85 214t-26 235.5zM332 584q0 -92 18.5 -170t55 -134.5t91 -87t128.5 -30.5q63 0 110 24.5t80 64.5t49.5 93t16.5 111q0 49 -14.5 97t-47.5 86t-83 61.5t-122 23.5q-55 0 -95 -11.5 t-70.5 -28.5t-53 -36.5t-41.5 -36.5z" />
<glyph unicode="7" horiz-adv-x="1212" d="M129 1241v193h954v-148l-448 -897q-59 -117 -114.5 -214t-102.5 -175h-254q45 59 102.5 156.5t112.5 205.5l291 566q20 41 44.5 86t49 88t46 80t38.5 59h-719z" />
<glyph unicode="8" horiz-adv-x="1212" d="M84 342q0 76 24.5 133t63.5 99t83 71t85 47l88 39v4q-51 16 -103.5 44t-93.5 70t-67.5 100.5t-26.5 137.5q0 78 30 147t90 120t151.5 80.5t212.5 29.5q221 0 345 -89t124 -261q0 -70 -24 -127t-64.5 -101t-95 -78t-113.5 -58v-5q53 -16 112.5 -44.5t108.5 -74.5 t81.5 -108.5t32.5 -146.5q0 -109 -38.5 -185.5t-109.5 -125t-171 -70t-221 -21.5q-92 0 -183.5 17.5t-162 60.5t-114.5 114.5t-44 180.5zM326 362q0 -45 16 -83.5t51 -67.5t89.5 -45t129.5 -16q152 0 219.5 64.5t67.5 158.5q0 43 -14.5 73.5t-38 54t-53 41t-62.5 33.5 l-133 68l-90 -47q-74 -39 -128 -94.5t-54 -139.5zM367 1090q0 -43 14 -76t37.5 -57.5t53.5 -43t63 -34.5l83 -39l76 37q76 37 121 90t45 131q0 49 -19.5 84t-52 58.5t-77.5 33.5t-97 10q-123 0 -185 -55t-62 -139z" />
<glyph unicode="9" horiz-adv-x="1212" d="M102 963q0 117 35 210t99.5 157.5t155.5 99t202 34.5q147 0 246.5 -60.5t159 -155.5t85 -214t25.5 -235q0 -160 -37 -309.5t-122 -265t-224 -185.5t-344 -70q-59 0 -118.5 9.5t-98.5 19.5l-31 10l17 180q29 -10 87 -24t144 -14q123 0 210 35.5t145.5 104t92 167 t50.5 225.5l-4 4q-23 -25 -52.5 -52.5t-70.5 -50t-93.5 -38t-117.5 -15.5q-98 0 -179 30t-139.5 86t-90.5 136t-32 181zM332 979q0 -49 14 -97t47 -86t83 -61.5t122 -23.5q55 0 95 11t71 28.5t53.5 37t40.5 35.5l23 27q0 92 -18.5 170t-55.5 134t-91 87t-128 31 q-63 0 -111.5 -24.5t-80 -64.5t-48 -93.5t-16.5 -110.5z" />
<glyph unicode=":" horiz-adv-x="606" d="M145 127q0 66 46.5 112t111.5 46q66 0 112 -46t46 -112t-46 -112t-112 -46t-112 46t-46 112zM145 932q0 66 46.5 112t111.5 46q66 0 112 -46.5t46 -111.5q0 -66 -46 -112t-112 -46t-112 46t-46 112z" />
<glyph unicode=";" horiz-adv-x="606" d="M92 -309l35 35q45 45 74.5 89t29.5 97q0 43 -16 73.5t-36.5 57.5t-37 52.5t-16.5 60.5q0 20 9 42.5t27.5 42t46.5 32t64 12.5q45 0 81 -20.5t59.5 -54.5t36 -76t12.5 -85t-10.5 -93t-33 -102.5t-58 -103.5t-85.5 -94l-77 -68zM141 932q0 66 46 112t112 46t112 -46.5 t46 -111.5q0 -66 -46 -112t-112 -46t-112 46t-46 112z" />
<glyph unicode="&#x3c;" horiz-adv-x="1228" d="M96 440v156l1037 463v-168l-832 -373l832 -373v-168z" />
<glyph unicode="=" horiz-adv-x="1228" d="M96 238v168h1037v-168h-1037zM96 631v168h1037v-168h-1037z" />
<glyph unicode="&#x3e;" horiz-adv-x="1228" d="M96 -23v168l832 373l-832 373v168l1037 -463v-156z" />
<glyph unicode="?" horiz-adv-x="985" d="M123 1556q18 6 94 24.5t193 18.5t207 -27.5t149 -77.5t90 -118.5t31 -150.5q0 -104 -53.5 -196.5t-163.5 -164.5l-189 -121q-49 -33 -68.5 -57t-19.5 -68q0 -29 13.5 -53t27.5 -41l12 -12l-202 -76l-17 21q-20 29 -41.5 72.5t-21.5 101.5q0 53 22.5 95t59.5 78t83 64.5 t91 55.5q117 66 165 130t48 154q0 49 -21.5 88t-59.5 67t-87 42t-105 14q-80 0 -141 -16.5t-84 -26.5zM166 127q0 66 46 112t112 46t111.5 -46t45.5 -112t-46 -112t-111 -46q-66 0 -112 46t-46 112z" />
<glyph unicode="@" horiz-adv-x="1638" d="M78 719q0 156 56 291t157.5 234t245 156.5t315.5 57.5q150 0 280 -44t225 -125t149.5 -193.5t54.5 -247.5q0 -150 -52.5 -258.5t-129 -178t-165 -102.5t-159.5 -33q-76 0 -109 34t-35 85h-4q-41 -47 -103.5 -83t-141.5 -36q-57 0 -107.5 23t-87.5 66t-58.5 102t-21.5 133 q0 106 37 203.5t98.5 172.5t141 119t165.5 44q152 0 232 -156l37 117h145l-139 -500q-16 -59 -24.5 -91t-8.5 -46q0 -20 13.5 -31.5t54.5 -11.5q39 0 82 31.5t77.5 86t58 128t23.5 157.5q0 104 -43 190.5t-115.5 148t-169 95t-200.5 33.5q-131 0 -240.5 -47t-187.5 -127 t-122 -184.5t-44 -220.5q0 -131 47 -235.5t127 -178.5t184.5 -114t219.5 -40q164 0 287.5 44t205.5 124h168q-39 -74 -101.5 -135t-146.5 -105t-187.5 -70t-225.5 -26q-158 0 -296.5 50.5t-240.5 146.5t-161.5 233.5t-59.5 313.5zM555 618q0 -92 41 -139t113 -47 q63 0 117.5 37t92 91t59 118t21.5 119q0 102 -43 144t-118 42q-61 0 -113.5 -34t-90.5 -86t-58.5 -116.5t-20.5 -128.5z" />
<glyph unicode="A" horiz-adv-x="1554" d="M25 0v168h122l521 1266h254l481 -1266h127v-168h-524v168h131l-123 356h-504l-133 -356h147v-168h-499zM575 705h379l-141 405q-16 47 -24.5 78t-12.5 53h-4q-4 -23 -12 -53.5t-27 -77.5z" />
<glyph unicode="B" horiz-adv-x="1290" d="M80 0v168h143l8 1098h-151v168h571q113 0 190 -16.5t142 -65.5q51 -37 90 -107.5t39 -163.5q0 -61 -18.5 -118.5t-55.5 -102.5t-90 -72.5t-121 -33.5v-4q72 0 139.5 -24t119 -68t82 -109.5t30.5 -147.5q0 -182 -129 -291.5t-389 -109.5h-600zM455 168h188 q61 0 116.5 13.5t96.5 43t64.5 74.5t23.5 111q0 59 -24.5 103t-64.5 72.5t-92 43t-108 14.5h-196zM459 823h155q117 0 186.5 59.5t69.5 170.5q0 74 -26.5 117.5t-69.5 68.5q-31 16 -66.5 21.5t-95.5 5.5h-149z" />
<glyph unicode="C" horiz-adv-x="1402" d="M84 702q0 168 54.5 306.5t154.5 239t244.5 155.5t322.5 55q135 0 255 -24.5t192 -53.5v-366h-205v229q-41 10 -101.5 22.5t-142.5 12.5q-258 0 -389 -148.5t-131 -418.5q0 -123 35 -224.5t99.5 -175t154.5 -114.5t200 -41q74 0 144.5 6t111.5 14l9 258h204l-8 -391 q-35 -12 -85 -23.5t-109.5 -21.5t-124 -16.5t-127.5 -6.5q-193 0 -335 56.5t-236.5 155t-140.5 230.5t-46 285z" />
<glyph unicode="D" horiz-adv-x="1593" d="M80 0v168h145l8 1098h-153v168h680q172 0 307 -48.5t228.5 -137.5t141.5 -216t48 -282q0 -160 -49.5 -296.5t-142.5 -237.5t-228 -158.5t-307 -57.5h-678zM455 168h229q264 0 405.5 150.5t141.5 420.5q0 121 -35 218.5t-102.5 166t-168 105.5t-231.5 37h-231z" />
<glyph unicode="E" d="M80 1266v168h1007l9 -377h-191l-12 209h-416l-4 -443h410v-180h-410l-4 -475h436l17 233h192l-16 -401h-1004v168h144l8 1098h-166z" />
<glyph unicode="F" horiz-adv-x="1175" d="M80 1266v168h1007l9 -377h-191l-12 209h-416l-4 -443h447v-180h-447l-4 -475h176v-168h-551v168h144l8 1098h-166z" />
<glyph unicode="G" horiz-adv-x="1478" d="M84 702q0 168 54.5 306.5t154.5 239t244.5 155.5t322.5 55q63 0 127 -7t123 -17.5t109.5 -24.5t87.5 -29v-366h-205v229q-41 10 -101.5 22.5t-142.5 12.5q-258 0 -389 -148.5t-131 -418.5q0 -123 35 -224.5t99.5 -175t154.5 -114.5t200 -41q53 0 119 6t125 22l4 316h-164 v168h529v-168h-148l-4 -457q-37 -12 -88 -24.5t-109.5 -21.5t-121 -15.5t-119.5 -6.5q-197 0 -340 56.5t-238.5 155t-141.5 230.5t-46 285z" />
<glyph unicode="H" horiz-adv-x="1593" d="M84 0v168h143l9 1098h-152v168h528v-168h-145l-4 -457h665l5 457h-152v168h528v-168h-145l-8 -1098h153v-168h-528v168h143l4 461h-665l-4 -461h153v-168h-528z" />
<glyph unicode="I" horiz-adv-x="720" d="M96 0v168h146l8 1098h-154v168h529v-168h-146l-8 -1098h154v-168h-529z" />
<glyph unicode="J" horiz-adv-x="681" d="M-94 -223l71 41q92 53 145.5 119.5t81 140.5t35 153.5t7.5 157.5l8 877h-158v168h529v-168h-142l-8 -863q-2 -160 -23.5 -274.5t-70.5 -201.5t-131 -153.5t-203 -127.5l-67 -35z" />
<glyph unicode="K" horiz-adv-x="1441" d="M80 0v168h141l8 1098h-149v168h526v-168h-145l-4 -502l567 502h-158v168h537v-168h-115l-590 -516l607 -582h118v-168h-573v168h149l-542 520l-4 -520h153v-168h-526z" />
<glyph unicode="L" d="M80 0v168h145l8 1098h-153v168h528v-168h-145l-8 -1098h426l20 242h193l-21 -410h-993z" />
<glyph unicode="M" horiz-adv-x="1933" d="M61 1266v168h471l414 -1067q10 -29 17.5 -58.5t15.5 -58.5h4q8 29 15.5 58.5t17.5 58.5l409 1067h447v-168h-164l8 -1098h156v-168h-522v168h141l8 969l-6 4q-14 -47 -25.5 -95.5t-29.5 -95.5l-367 -950h-229l-359 913q-23 53 -35 108.5t-28 111.5h-4l-8 -965h161v-168 h-499v168h145l8 1098h-162z" />
<glyph unicode="N" horiz-adv-x="1630" d="M55 1266v168h377l664 -867q16 -23 34.5 -49t38 -56t38 -57.5t32.5 -52.5h4l-8 914h-160v168h500v-168h-139l-9 -1266h-186l-717 930q-31 41 -57.5 81t-42.5 70l-4 -4l8 -909h158v-168h-498v168h139l9 1098h-181z" />
<glyph unicode="O" horiz-adv-x="1554" d="M84 692q0 168 51 309.5t144.5 243t227.5 157.5t300 56q156 0 278.5 -50t208.5 -142t131 -225.5t45 -299.5q0 -141 -42 -279t-129 -245.5t-220 -174.5t-313 -67q-158 0 -284 50.5t-214 143.5t-136 225t-48 298zM338 702q0 -104 25.5 -200t80 -171t136.5 -119t194 -44 q141 0 228.5 60.5t135.5 147.5t63.5 183t15.5 170q0 96 -18.5 191.5t-67 172t-130 125t-208.5 48.5q-90 0 -172 -32t-145.5 -100.5t-100.5 -175t-37 -256.5z" />
<glyph unicode="P" d="M80 0v168h145l8 1098h-153v168h541q72 0 124 -4.5t90.5 -11.5t68.5 -19.5t59 -28.5q86 -51 135 -143t49 -209q0 -121 -55.5 -224.5t-145.5 -156.5q-66 -39 -127 -53.5t-151 -14.5h-211l-4 -401h176v-168h-549zM457 737h161q78 0 132.5 20.5t89 56.5t50 86t15.5 110 q0 63 -22.5 113.5t-57.5 80.5q-45 39 -101 50.5t-136 11.5h-127z" />
<glyph unicode="Q" horiz-adv-x="1554" d="M84 692q0 168 51 309.5t144.5 243t227.5 157.5t300 56q156 0 278.5 -50t208.5 -142t131 -225.5t45 -299.5q0 -119 -28.5 -234.5t-88 -213.5t-149.5 -173t-213 -114v-4q51 -4 91 -16.5t100 -42.5l190 -97q72 -37 130.5 -46t94.5 -9q63 0 99 12v-180q-33 -4 -63.5 -8 t-69.5 -4q-43 0 -82 4t-81 15.5t-92.5 32t-117.5 54.5l-287 146q-57 29 -119.5 64.5t-111.5 47.5q-135 16 -245 73.5t-185.5 150t-116.5 217t-41 276.5zM338 702q0 -104 25.5 -200t80 -171t136.5 -119t194 -44q141 0 228.5 60.5t135.5 147.5t63.5 183t15.5 170 q0 96 -18.5 191.5t-67 172t-130 125t-208.5 48.5q-90 0 -172 -32t-145.5 -100.5t-100.5 -175t-37 -256.5z" />
<glyph unicode="R" horiz-adv-x="1327" d="M80 0v168h141l8 1098h-149v168h637q111 0 192.5 -30t135 -81t80 -120.5t26.5 -147.5q0 -92 -27.5 -161t-75 -115t-109.5 -71.5t-130 -31.5v-4q59 -4 102 -49t80 -107l156 -262q31 -51 61.5 -68.5t65.5 -17.5h53v-168h-133q-45 0 -80 4t-64.5 19.5t-57 45t-58.5 83.5 l-197 333q-23 39 -40 62.5t-35.5 38t-38 19.5t-43.5 5h-123l-4 -442h165v-168h-538zM457 791h178q123 0 198.5 61t75.5 178q0 113 -66.5 174.5t-191.5 61.5h-190z" />
<glyph unicode="S" horiz-adv-x="1251" d="M109 51v346h229v-190q33 -16 103.5 -33.5t156.5 -17.5q137 0 220 59t83 176q0 86 -54 128t-169 75l-254 72q-61 18 -117.5 45.5t-99.5 71.5t-68.5 106.5t-25.5 148.5q0 106 42 185.5t115.5 131.5t172 77.5t210.5 25.5q141 0 247 -23.5t187 -45.5v-318h-217v172 q-23 10 -77 22.5t-138 12.5q-80 0 -137 -16.5t-93 -45t-53.5 -66.5t-17.5 -79q0 -47 16.5 -80t46 -55.5t69.5 -37.5t89 -28l222 -57q61 -16 122.5 -43t111.5 -72t81 -110.5t31 -159.5q0 -215 -147.5 -334t-403.5 -119q-39 0 -102.5 5.5t-132 14.5t-135 23.5t-113.5 32.5z " />
<glyph unicode="T" horiz-adv-x="1402" d="M43 1057l8 377h1301l8 -377h-205l-8 209h-328l-8 -1098h166v-168h-543v168h148l8 1098h-334l-8 -209h-205z" />
<glyph unicode="U" horiz-adv-x="1554" d="M61 1266v168h525v-168h-146l-2 -719q0 -41 2 -83t9.5 -81t23.5 -74t45 -61q49 -47 106.5 -63.5t149.5 -16.5q104 0 165.5 16.5t111.5 65.5q49 49 64 117.5t18 173.5l4 725h-168v168h524v-168h-137l-4 -770q0 -143 -43 -241.5t-117 -162.5q-70 -59 -181.5 -88t-238.5 -29 q-162 0 -261 30t-169 89q-78 66 -105.5 162t-27.5 238q0 207 1 396t3 376h-152z" />
<glyph unicode="V" horiz-adv-x="1517" d="M10 1266v168h537v-168h-146l342 -949q10 -29 17.5 -61.5t15.5 -62.5h4q8 31 15.5 63.5t17.5 60.5l336 949h-166v168h524v-168h-129l-491 -1266h-254l-498 1266h-125z" />
<glyph unicode="W" horiz-adv-x="2275" d="M16 1266v168h537v-168h-143l309 -924q12 -37 21.5 -75t19.5 -74h4q10 37 18.5 75.5t22.5 73.5l254 692l-78 232h-139v168h524v-168h-143l280 -906q12 -41 20.5 -84t18.5 -83h4q12 41 22.5 83.5t24.5 83.5l312 906h-158v168h512v-168h-125l-477 -1266h-254l-246 760h-4 l-287 -760h-254l-469 1266h-127z" />
<glyph unicode="X" horiz-adv-x="1441" d="M33 0v168h119l440 551l-402 547h-135v168h561v-168h-153q10 -10 19.5 -20.5t19.5 -24.5l246 -336l264 332q12 16 22 26l23 23h-156v168h475v-168h-108l-412 -527l424 -571h129v-168h-561v168h147q-25 25 -41 49l-254 356l-270 -356q-18 -25 -43 -49h145v-168h-499z" />
<glyph unicode="Y" horiz-adv-x="1478" d="M8 1266v168h524v-168h-139q25 -25 41 -49l330 -449l326 449q10 14 20 25t23 24h-162v168h499v-168h-127l-483 -674l-8 -424h152v-168h-525v168h144l8 424l-498 674h-125z" />
<glyph unicode="Z" horiz-adv-x="1327" d="M90 0v160l811 1057q20 27 45 49h-590l-16 -207h-205l17 375h1073v-172l-801 -1045q-18 -25 -43 -49h635l16 207h205l-16 -375h-1131z" />
<glyph unicode="[" horiz-adv-x="606" d="M164 -514l8 2089h410v-168h-193l-8 -1753h192v-168h-409z" />
<glyph unicode="\" horiz-adv-x="757" d="M-4 1542l151 57l615 -1708l-152 -57z" />
<glyph unicode="]" horiz-adv-x="606" d="M25 -346h192l8 1753h-192v168h409l-8 -2089h-409v168z" />
<glyph unicode="^" horiz-adv-x="1228" d="M176 686l373 748h131l373 -748h-168l-271 543l-270 -543h-168z" />
<glyph unicode="_" horiz-adv-x="1024" d="M0 -154h1024v-102h-1024v102z" />
<glyph unicode="`" horiz-adv-x="569" d="M-61 1516l122 114l414 -344l-129 -98z" />
<glyph unicode="a" d="M119 281q0 104 47 167.5t116.5 97.5t149.5 45t146 15l219 12v80q0 49 -10.5 90t-37 71t-72.5 46.5t-116 16.5q-59 0 -112.5 -13.5t-79.5 -23.5v-156h-205v264q20 10 57 26.5t89 32t121 27t155 11.5q119 0 198.5 -29t128 -81t68.5 -128t20 -170q0 -129 -3 -257t-5 -257 h144v-168h-338q0 51 4 109.5t14 111.5h-4q-16 -45 -43 -89t-67.5 -79t-100 -56.5t-143.5 -21.5q-96 0 -161 29t-104.5 73t-57 98t-17.5 106zM348 299q0 -59 44 -101t126 -42q68 0 119 23.5t86 61.5t52.5 86t17.5 99v43q-90 0 -170 -5t-141.5 -21.5t-97.5 -50.5t-36 -93z" />
<glyph unicode="b" horiz-adv-x="1251" d="M8 1407v168h402l-9 -506q-2 -57 -7 -112.5t-11 -112.5h4q14 39 43 82t73 79.5t106.5 60.5t142.5 24q104 0 185 -36t135 -99.5t83 -152.5t29 -196q0 -119 -30 -232.5t-99.5 -201.5t-185 -142.5t-287.5 -54.5q-139 0 -235.5 26t-174.5 56l8 1350h-172zM397 213 q33 -16 83 -30.5t128 -14.5q90 0 153.5 35t103.5 93t58.5 134t18.5 160q0 141 -64.5 224t-195.5 83q-68 0 -119 -23.5t-86 -65.5t-52 -97.5t-19 -118.5z" />
<glyph unicode="c" horiz-adv-x="1024" d="M74 526q0 123 36.5 225.5t109.5 178.5t180.5 118t246.5 42q123 0 195.5 -19.5t107.5 -36.5v-301h-192v158q-25 8 -60.5 13t-74.5 5q-80 0 -139.5 -27.5t-99.5 -76.5t-60.5 -114.5t-20.5 -141.5q0 -70 18.5 -137.5t61.5 -121.5t114.5 -88t178.5 -34q78 0 154.5 19.5 t117.5 41.5l-12 -198q-33 -14 -112 -35t-179 -21q-160 0 -269.5 48.5t-176 127t-96 177t-29.5 198.5z" />
<glyph unicode="d" horiz-adv-x="1290" d="M74 481q0 131 38 243t111.5 193.5t180 127t241.5 45.5q57 0 110.5 -7.5t100.5 -17.5l4 342h-194v168h415l-8 -1407h144v-168h-361q0 57 6 113.5t15 103.5h-5q-41 -109 -129 -175.5t-225 -66.5q-96 0 -177 35t-140.5 99.5t-93 158.5t-33.5 213zM315 516q0 -74 16.5 -138.5 t48.5 -110.5t80 -72.5t113 -26.5q139 0 207 106.5t68 292.5v297q-74 45 -203 45q-80 0 -141.5 -31.5t-103.5 -86t-63.5 -126t-21.5 -149.5z" />
<glyph unicode="e" horiz-adv-x="1138" d="M74 528q0 119 32.5 221.5t99 178.5t164 119t226.5 43q119 0 210 -42t150.5 -117t90 -178.5t30.5 -226.5v-30h-762q0 -78 28 -140.5t76 -107.5t114.5 -68.5t146.5 -23.5q100 0 186 23.5t156 58.5l-12 -189q-55 -23 -154.5 -48.5t-220.5 -25.5q-133 0 -236.5 40t-176 112 t-110.5 174t-38 227zM315 651h521v21q0 33 -12.5 76t-41 81.5t-77 65.5t-121.5 27q-74 0 -123 -25t-81 -62.5t-47.5 -86t-17.5 -97.5z" />
<glyph unicode="f" horiz-adv-x="720" d="M61 897v168h162l4 145q2 104 38 178t95.5 121t140.5 68.5t175 21.5q68 0 121 -9t86 -15l-9 -180q-23 10 -64.5 17t-107.5 7t-111.5 -18.5t-75.5 -50t-43 -74.5t-15 -90l-4 -121h249v-168h-249l-4 -729h163v-168h-522v168h129l4 729h-162z" />
<glyph unicode="g" horiz-adv-x="1175" d="M68 -256q0 53 20.5 97t54 76t78.5 52.5t94 26.5v4q-59 12 -107 49t-48 109q0 41 19.5 71.5t48 51t64.5 33t70 18.5v4q-45 12 -92 35.5t-87 64.5t-65.5 101.5t-25.5 146.5t32 161t92 129t148.5 85t202.5 31q53 0 104.5 -8.5t84.5 -16.5h393l-8 -168l-205 12 q27 -29 57.5 -83t30.5 -148q0 -86 -35 -155.5t-95 -119t-138 -77t-164 -27.5h-86q-43 0 -80 -24.5t-37 -55.5q0 -37 42 -49t138 -27l279 -39q55 -8 106.5 -23t90 -45t61 -75t22.5 -113q0 -109 -48 -182.5t-128 -119.5t-180 -65.5t-205 -19.5q-109 0 -200 19.5t-157.5 56.5 t-104 89t-37.5 118zM285 -209q0 -47 23.5 -77.5t64.5 -49t96 -27t121 -8.5q57 0 114.5 9.5t103.5 30t74.5 54t28.5 84.5q0 57 -47 82t-143 39l-266 41q-78 -35 -124 -75.5t-46 -102.5zM309 690q0 -117 71 -170t200 -53q123 0 187 62.5t64 168.5q0 109 -69.5 166.5 t-194.5 57.5q-121 0 -189.5 -64t-68.5 -168z" />
<glyph unicode="h" horiz-adv-x="1366" d="M74 1407v168h391l-6 -510q0 -53 -8.5 -110.5t-18.5 -125.5h4q16 51 47 98.5t77 83.5t108.5 57.5t142.5 21.5q188 0 279.5 -110t91.5 -302q0 -129 -3 -255t-5 -255h139v-168h-490v168h121q2 117 5 234.5t3 234.5q0 113 -52 186.5t-163 73.5q-119 0 -197.5 -87t-82.5 -237 l-8 -405h143v-168h-494v168h121l8 1239h-153z" />
<glyph unicode="i" horiz-adv-x="645" d="M61 897v168h392l-4 -897h143v-168h-512v168h139l4 729h-162zM180 1442q0 66 46 111.5t112 45.5t112 -46t46 -111q0 -66 -46.5 -112t-111.5 -46q-66 0 -112 46t-46 112z" />
<glyph unicode="j" horiz-adv-x="681" d="M-150 -356q106 25 177 67.5t113 116.5t60.5 185.5t18.5 275.5l4 608h-162v168h392l-4 -866q-2 -324 -142.5 -512.5t-427.5 -225.5zM180 1442q0 66 46 111.5t112 45.5t112 -46t46 -111q0 -66 -46.5 -112t-111.5 -46q-66 0 -112 46t-46 112z" />
<glyph unicode="k" horiz-adv-x="1251" d="M41 1407v168h416l-8 -973l376 291v4h-151v168h500v-168h-107l-381 -315l412 -414h121v-168h-512v168h124l-382 373v-373h129v-168h-488v168h129l8 1239h-186z" />
<glyph unicode="l" horiz-adv-x="645" d="M41 1407v168h416l-8 -1407h143v-168h-502v168h129l8 1239h-186z" />
<glyph unicode="m" horiz-adv-x="2048" d="M74 897v168h379q0 -53 -5.5 -110.5t-15.5 -125.5h4q33 119 131.5 190t233.5 71q80 0 137 -19.5t97 -52.5t62.5 -77t30.5 -93h5q37 117 133 179.5t231 62.5q184 0 275.5 -111t91.5 -301q0 -129 -2 -255t-7 -255h140v-168h-490v168h121q4 117 6 234.5t2 234.5 q0 113 -52 186.5t-163 73.5q-117 0 -186.5 -87t-73.5 -237l-4 -405h135v-168h-481v168h117l4 428q0 61 -8.5 115.5t-33 96.5t-66.5 65.5t-105 23.5q-51 0 -98.5 -22.5t-84 -64.5t-59 -102.5t-22.5 -134.5l-4 -405h143v-168h-494v168h121l4 729h-149z" />
<glyph unicode="n" horiz-adv-x="1366" d="M74 897v168h379q0 -53 -5.5 -110.5t-15.5 -125.5h4q16 51 47 98.5t77 83.5t108.5 57.5t142.5 21.5q188 0 279.5 -110t91.5 -302q0 -129 -3 -255t-5 -255h139v-168h-490v168h121q2 117 5 234.5t3 234.5q0 113 -52 186.5t-163 73.5q-119 0 -197.5 -87t-82.5 -237l-8 -405 h143v-168h-494v168h121l4 729h-149z" />
<glyph unicode="o" d="M68 510q0 131 41 237.5t114.5 182.5t176 118t225.5 42q147 0 247.5 -51.5t161 -132.5t87 -181t26.5 -199q0 -115 -35 -214t-103.5 -175t-171 -119t-239.5 -43q-143 0 -243.5 45.5t-164 121t-93 171t-29.5 197.5zM309 518q0 -68 17.5 -130t53.5 -111.5t91 -79t133 -29.5 t135.5 30.5t94 83t54 122t17.5 147.5q0 90 -22.5 155.5t-60.5 107.5t-90 62.5t-111 20.5q-86 0 -145.5 -33t-96.5 -86t-53.5 -121.5t-16.5 -138.5z" />
<glyph unicode="p" horiz-adv-x="1290" d="M53 897v168h367q0 -57 -6 -113.5t-15 -103.5h4q41 109 129.5 175.5t225.5 66.5q96 0 178 -35t141.5 -99.5t93 -159t33.5 -212.5q0 -133 -38 -244t-111.5 -192.5t-180 -127t-243.5 -45.5q-57 0 -110.5 8.5t-100.5 26.5l-4 -356h170v-168h-510v168h119l8 1243h-150z M428 201q74 -45 205 -45q80 0 141.5 31.5t103.5 86t63.5 126t21.5 149.5q0 74 -16.5 138.5t-48.5 110.5t-81 72.5t-112 26.5q-141 0 -209 -106.5t-68 -292.5v-297z" />
<glyph unicode="q" horiz-adv-x="1290" d="M74 459q0 119 29.5 232.5t99 201.5t185.5 142.5t288 54.5q139 0 235.5 -26t175.5 -56l-8 -1354h152v-168h-512v168h131l4 342q0 57 8 112.5t12 112.5h-4q-14 -39 -42.5 -82t-73.5 -79.5t-106.5 -60.5t-141.5 -24q-104 0 -185 36t-135.5 99.5t-83 152.5t-28.5 196z M315 475q0 -141 64.5 -224t195.5 -83q68 0 118 23.5t85 65.5t53.5 97.5t20.5 118.5l8 379q-33 16 -83 30.5t-128 14.5q-90 0 -153.5 -35t-103.5 -93t-58.5 -135t-18.5 -159z" />
<glyph unicode="r" horiz-adv-x="872" d="M61 897v168h379q0 -59 -1 -137t-11 -158l4 -4q31 152 113 235.5t198 83.5q41 0 77 -6t52 -12l-24 -203q-23 8 -46.5 12.5t-58.5 4.5q-76 0 -131 -33t-90 -87t-52 -123t-17 -138l-4 -332h155v-168h-514v168h129l4 729h-162z" />
<glyph unicode="s" horiz-adv-x="1062" d="M90 754q0 94 38 157.5t100.5 103.5t144.5 57.5t170 17.5q131 0 227 -27t143 -43l5 -260h-205l-4 127q-25 14 -65 24.5t-109 10.5q-41 0 -79 -5.5t-69 -19.5t-49.5 -40t-18.5 -64q0 -61 43.5 -85t92.5 -34l260 -51q45 -10 91 -26.5t83 -48.5t60.5 -84t23.5 -134 q0 -104 -41 -173t-108.5 -109t-153.5 -56.5t-174 -16.5q-135 0 -235.5 22.5t-151.5 41.5l-5 289h205l4 -142q31 -10 86.5 -26.5t141.5 -16.5q41 0 79.5 8.5t68.5 26t48.5 46t18.5 69.5q0 68 -44 95.5t-110 39.5l-170 31q-61 12 -122.5 30.5t-109.5 52t-79 85t-31 127.5z" />
<glyph unicode="t" horiz-adv-x="757" d="M61 897v168h162l4 240l232 16l-8 -256h305v-168h-305q-2 -129 -3.5 -253t-1.5 -245q0 -74 8.5 -121t27 -74.5t46 -37.5t68.5 -10q47 0 93 12t85 29l-8 -168q-43 -23 -105.5 -38.5t-130.5 -15.5q-84 0 -143 17.5t-97 56.5t-55.5 101.5t-17.5 152.5q0 51 1 125t2 155 t2 162.5t1 151.5h-162z" />
<glyph unicode="u" horiz-adv-x="1366" d="M74 897v168h370q-4 -160 -6 -318.5t-2 -318.5q0 -113 52.5 -186.5t156.5 -73.5q115 0 194 87t81 237l4 405h-140v168h369l-4 -897h143v-168h-368q0 53 5 110.5t15 125.5h-4q-16 -59 -53 -107.5t-87 -82.5t-109.5 -52.5t-123.5 -18.5q-172 0 -266 110t-94 298q0 131 2 258 t6 256h-141z" />
<glyph unicode="v" horiz-adv-x="1175" d="M-6 897v168h475v-168h-115l211 -575q10 -33 17.5 -65t17.5 -64h4q8 33 14.5 65.5t16.5 63.5l207 575h-135v168h475v-168h-111l-362 -897h-242l-367 897h-106z" />
<glyph unicode="w" horiz-adv-x="1820" d="M10 897v168h475v-168h-120l196 -541q14 -37 24.5 -74.5t20.5 -76.5h4q12 39 23.5 76.5t28.5 74.5l167 400l-51 141h-119v168h476v-168h-127l194 -549q12 -35 20.5 -71.5t18.5 -71.5h4q10 35 18.5 71.5t20.5 71.5l201 549h-150v168h475v-168h-108l-359 -897h-241l-150 418 q-10 29 -17 57.5t-15 56.5h-5q-8 -29 -15 -57.5t-17 -56.5l-174 -418h-230l-356 897h-113z" />
<glyph unicode="x" horiz-adv-x="1290" d="M61 0v168h117l338 369l-313 360h-123v168h512v-168h-129q10 -10 19.5 -18.5t19.5 -18.5l170 -198l176 198q18 20 41 33v4h-139v168h450v-168h-113l-317 -336l340 -393h119v-168h-512v168h133q-10 10 -19.5 18.5t-19.5 18.5l-190 221l-203 -221q-18 -23 -41 -33v-4h147 v-168h-463z" />
<glyph unicode="y" d="M-6 897v168h487v-168h-119l205 -547q16 -41 26.5 -83t20.5 -77h4q8 35 20.5 77t27.5 83l188 547h-139v168h450v-168h-106l-324 -891q-12 -37 -31.5 -88t-42 -105.5t-47 -102.5t-47.5 -79q-72 -94 -167 -132t-199 -38q-43 0 -82 6.5t-64 16.5v180q25 -10 70 -16t80 -6 q39 0 75.5 10t73.5 41t72 85t68 142l8 23l-393 954h-115z" />
<glyph unicode="z" horiz-adv-x="1099" d="M82 0v168l590 674q14 16 30.5 30.5t28.5 24.5h-414l-16 -158h-192l16 326h885v-172l-578 -653q-16 -20 -34.5 -37t-39.5 -35h451l16 164h193l-17 -332h-919z" />
<glyph unicode="{" horiz-adv-x="606" d="M41 453v155q39 2 74 21.5t61.5 51.5t41.5 75t15 90v424q0 74 21.5 131t58.5 96t84 58.5t97 19.5h129v-156h-56q-68 0 -92 -42t-24 -113v-418q0 -129 -64.5 -208t-153.5 -106v-4q88 -27 153 -105.5t65 -207.5v-418q0 -72 24.5 -113.5t91.5 -41.5h56v-156h-129 q-49 0 -96.5 19.5t-84.5 58.5t-58.5 96t-21.5 131v424q0 47 -15 90t-41.5 75t-61.5 51.5t-74 21.5z" />
<glyph unicode="|" horiz-adv-x="454" d="M143 -512v2048h168v-2048h-168z" />
<glyph unicode="}" horiz-adv-x="606" d="M-16 -358h55q68 0 92.5 42t24.5 113v418q0 129 64.5 208t152.5 105v4q-88 27 -152.5 106t-64.5 208v418q0 72 -25 113.5t-92 41.5h-55v156h129q49 0 96 -19.5t84 -58.5t58.5 -96.5t21.5 -130.5v-424q0 -47 15 -90t42 -75t61.5 -51.5t73.5 -21.5v-155q-39 -2 -73.5 -21.5 t-61.5 -51.5t-42 -75t-15 -90v-424q0 -74 -21.5 -131t-58.5 -96t-84 -58.5t-96 -19.5h-129v156z" />
<glyph unicode="~" horiz-adv-x="1228" d="M141 500q16 33 40 63.5t54.5 55t70.5 40t91 15.5q59 0 117.5 -21.5t116.5 -50.5q57 -27 108.5 -49.5t94.5 -22.5q31 0 56 14.5t46.5 36t40 49t37.5 54.5l73 -147q-16 -33 -39.5 -64t-54 -55.5t-70.5 -40t-92 -15.5q-57 0 -116.5 23t-116.5 49q-55 29 -107.5 50.5 t-95.5 21.5q-31 0 -56.5 -14.5t-47 -36t-40 -49t-36.5 -54.5z" />
<glyph unicode="&#xa1;" horiz-adv-x="606" d="M145 932q0 66 46.5 112t111.5 46q66 0 112 -46t46 -112t-46 -112t-112 -46t-112 46t-46 112zM170 -514l25 1102h217l24 -1102h-266z" />
<glyph unicode="&#xa2;" horiz-adv-x="1212" d="M121 526q0 111 30.5 207t90 170t147.5 121t203 57l4 213h156l-4 -204q53 0 105 -6.5t97 -14.5t79 -18.5t50 -16.5v-301h-180v158q-29 6 -67.5 12t-83.5 6l-5 -741q88 2 174.5 20.5t135.5 40.5l-13 -198q-41 -12 -119.5 -31.5t-177.5 -24.5l-4 -249h-155l4 249 q-129 14 -218 68.5t-144.5 131.5t-80 168t-24.5 183zM350 549q0 -63 12.5 -123.5t40 -112t72.5 -89.5t113 -56l4 733q-61 -6 -107.5 -39t-76 -82t-44 -109.5t-14.5 -121.5z" />
<glyph unicode="&#xa3;" horiz-adv-x="1212" d="M61 0v168h156q27 33 41 100.5t14 153.5q0 59 -3 123.5t-7 113.5h-184v168h178q-4 29 -6 79t-2 104q0 111 37 195.5t105.5 142t166.5 87t219 29.5q133 0 223.5 -20.5t133.5 -36.5v-371h-193v226q-29 6 -71 14t-97 8q-86 0 -143.5 -24.5t-91 -63.5t-47 -90t-13.5 -102 q0 -57 2 -99.5t6 -77.5h279v-168h-272q2 -47 6 -96t4 -108q0 -88 -14.5 -167t-53.5 -120h496l12 233h193l-13 -401h-1061z" />
<glyph unicode="&#xa4;" horiz-adv-x="1212" d="M88 295l115 115q-49 63 -77 142t-28 165q0 174 105 307l-115 115l94 94l115 -115q63 51 142 79t167 28t167 -28t142 -79l115 115l94 -94l-114 -115q104 -133 104 -307q0 -86 -27.5 -165t-76.5 -142l114 -115l-94 -94l-115 114q-66 -51 -143.5 -78.5t-165.5 -27.5 t-166 27.5t-143 78.5l-115 -114zM266 717q0 -78 25.5 -144.5t72 -115.5t109 -77t133.5 -28q72 0 134.5 28t108.5 77t71.5 115.5t25.5 144.5q0 76 -25.5 142.5t-71.5 115.5t-108.5 77.5t-134.5 28.5t-134 -28.5t-108.5 -77.5t-72 -115.5t-25.5 -142.5z" />
<glyph unicode="&#xa5;" horiz-adv-x="1212" d="M6 1266v168h438v-168h-118l301 -523l297 523h-131v168h413v-168h-102l-313 -553h213v-131h-293l-4 -119h297v-131h-297l-5 -164h125v-168h-438v168h121l4 164h-305v131h305l4 119h-309v131h225l-325 553h-103z" />
<glyph unicode="&#xa6;" horiz-adv-x="454" d="M143 358h168v-716h-168v716zM143 666v716h168v-716h-168z" />
<glyph unicode="&#xa7;" horiz-adv-x="1212" d="M150 -35h204v-166q66 -25 115 -34t109 -9q49 0 93 10.5t77.5 33t54 57t20.5 86.5q0 63 -40 96t-103 61l-320 140q-84 35 -145 105.5t-61 178.5q0 68 20.5 117t51 84t67.5 58.5t69 41.5q-88 41 -139 104.5t-51 172.5q0 88 35 154.5t96.5 111.5t146.5 67.5t187 22.5 q98 0 198.5 -17.5t192.5 -51.5v-273h-205v144q-35 12 -76.5 21t-107.5 9q-117 0 -177.5 -44t-60.5 -118q0 -59 34 -89.5t102 -61.5l299 -133q39 -18 79.5 -43t73.5 -62t53.5 -86t20.5 -114q0 -111 -56.5 -182.5t-140.5 -112.5q33 -16 66 -40t59.5 -58.5t44 -81t17.5 -103.5 q0 -190 -136.5 -287.5t-365.5 -97.5q-131 0 -236.5 29.5t-164.5 56.5v303zM371 575q0 -47 31.5 -91t91.5 -68l243 -105l47 37q74 57 74 141q0 47 -24.5 82t-88.5 66l-241 119l-47 -31q-86 -53 -86 -150z" />
<glyph unicode="&#xa8;" horiz-adv-x="569" d="M-86 1401q0 59 43 102t102 43t102.5 -43t43.5 -102t-43 -102.5t-103 -43.5q-59 0 -102 43.5t-43 102.5zM365 1401q0 59 43 102t102 43t102 -43t43 -102t-43 -102.5t-102 -43.5t-102 43.5t-43 102.5z" />
<glyph unicode="&#xa9;" horiz-adv-x="1638" d="M78 717q0 154 58.5 289t158.5 235t235.5 158.5t288.5 58.5q154 0 289 -58.5t235.5 -158.5t159 -235.5t58.5 -288.5q0 -154 -58.5 -289t-159 -235.5t-235.5 -159t-289 -58.5t-289 58.5t-235 159t-158.5 235.5t-58.5 289zM258 717q0 -127 44 -232.5t121 -181.5t179.5 -118 t216.5 -42q115 0 217.5 42t179 118t120.5 181.5t44 232.5t-44 232.5t-120.5 181t-179 117.5t-217.5 42t-217 -42t-179 -117.5t-121 -181t-44 -232.5zM424 719q0 102 29.5 185t84 141.5t131 89t173.5 30.5q137 0 236.5 -78.5t119.5 -228.5h-162q-12 70 -61 111t-137 41 q-117 0 -181.5 -83t-64.5 -208q0 -129 65.5 -211t188.5 -82q74 0 128 42t62 120h168q-25 -150 -127 -234t-250 -84q-90 0 -164.5 32t-128 90.5t-82 141t-28.5 185.5z" />
<glyph unicode="&#xaa;" horiz-adv-x="788" d="M51 979q0 63 32 102t81 61.5t110.5 32t122.5 13.5l103 6v37q0 45 -29 80t-121 35q-39 0 -73.5 -8.5t-51.5 -14.5v-74h-131v158q29 12 96.5 34.5t188.5 22.5q80 0 132 -16t85 -48t46 -77t13 -102q0 -78 -2 -153t-4 -146h88v-107h-229q0 29 2 67t6 62h-6 q-10 -29 -25.5 -54.5t-42 -46t-65.5 -32.5t-92 -12q-68 0 -113 17.5t-71.5 43t-38 57t-11.5 62.5zM219 993q0 -27 24 -50t79 -25q41 0 73.5 13t55 34.5t34 48t11.5 53.5v25q-84 -6 -137.5 -11.5t-84 -16.5t-43 -27.5t-12.5 -43.5z" />
<glyph unicode="&#xab;" horiz-adv-x="1062" d="M82 518v131l274 312l160 -127l-217 -252l217 -256l-160 -123zM547 518v131l274 312l160 -127l-217 -252l217 -256l-160 -123z" />
<glyph unicode="&#xac;" horiz-adv-x="1228" d="M96 631v168h1037v-578h-168v410h-869z" />
<glyph unicode="&#xad;" horiz-adv-x="833" d="M135 479v205h563v-205h-563z" />
<glyph unicode="&#xae;" horiz-adv-x="1638" d="M78 717q0 154 58.5 289t158.5 235t235.5 158.5t288.5 58.5q154 0 289 -58.5t235.5 -158.5t159 -235.5t58.5 -288.5q0 -154 -58.5 -289t-159 -235.5t-235.5 -159t-289 -58.5t-289 58.5t-235 159t-158.5 235.5t-58.5 289zM258 717q0 -127 44 -232.5t121 -181.5t179.5 -118 t216.5 -42q115 0 217.5 42t179 118t120.5 181.5t44 232.5t-44 232.5t-120.5 181t-179 117.5t-217.5 42t-217 -42t-179 -117.5t-121 -181t-44 -232.5zM504 293v848h325q158 0 238 -57.5t80 -186.5q0 -57 -17.5 -99t-47 -71t-68.5 -46t-84 -26l227 -362h-168l-215 356h-127 v-356h-143zM647 780h178q102 0 140.5 32t38.5 91t-47.5 83t-131.5 24h-178v-230z" />
<glyph unicode="&#xaf;" horiz-adv-x="569" d="M-20 1327v168h610v-168h-610z" />
<glyph unicode="&#xb0;" horiz-adv-x="819" d="M117 1171q0 61 22.5 114.5t62.5 93.5t93 62.5t115 22.5q61 0 114.5 -22.5t93 -62.5t62 -93t22.5 -115q0 -61 -22.5 -114t-62 -93t-93 -62.5t-114.5 -22.5t-114.5 22.5t-93.5 62.5t-62.5 93t-22.5 114zM260 1171q0 -61 44 -105t106 -44q61 0 105 44t44 105t-44 105.5 t-105 44.5t-105.5 -44.5t-44.5 -105.5z" />
<glyph unicode="&#xb1;" horiz-adv-x="1228" d="M96 0v168h1037v-168h-1037zM96 567v168h434v301h168v-301h435v-168h-435v-301h-168v301h-434z" />
<glyph unicode="&#xb2;" horiz-adv-x="788" d="M66 582v135l45 28q43 29 115.5 82.5t141 118t119 134t50.5 128.5q0 53 -35 89t-107 36q-47 0 -77.5 -17.5t-49 -42t-27 -51t-8.5 -42.5h-167q0 39 14 88t52 93t102.5 73.5t164.5 29.5q145 0 231.5 -57t86.5 -190q0 -55 -25.5 -108.5t-72 -106t-107.5 -106.5t-135 -112 q-23 -18 -47.5 -34.5t-46.5 -28.5v-4q25 2 56.5 5t55.5 3h328v-143h-657z" />
<glyph unicode="&#xb3;" horiz-adv-x="788" d="M61 1214q0 31 14.5 73t52.5 82t102.5 67.5t162.5 27.5q154 0 225.5 -61.5t71.5 -151.5q0 -47 -17.5 -81.5t-46 -60.5t-65.5 -40t-78 -20v-5q49 -4 93.5 -19t78 -43t53 -68t19.5 -91q0 -55 -21.5 -103t-68.5 -83t-120 -55.5t-173 -20.5q-111 0 -172 17.5t-94 29.5v146 q43 -23 104.5 -42.5t151.5 -19.5q39 0 77 7.5t68.5 23.5t49 40.5t18.5 61.5q0 45 -22.5 72t-56.5 42t-73 20.5t-73 5.5h-56v118h19q37 0 75.5 7.5t72.5 26t55.5 47t21.5 71.5q0 39 -34 68.5t-93 29.5q-43 0 -72.5 -13t-48 -31.5t-26 -39t-7.5 -35.5h-168z" />
<glyph unicode="&#xb4;" horiz-adv-x="569" d="M94 1286l414 344l123 -114l-408 -328z" />
<glyph unicode="&#xb5;" horiz-adv-x="1366" d="M74 897v168h370q-4 -160 -6 -318.5t-2 -318.5q0 -113 52.5 -186.5t156.5 -73.5q115 0 194 87t81 237l4 405h-140v168h369l-4 -897h143v-168h-368q0 53 5 110.5t15 125.5h-4q-18 -59 -53 -107.5t-81 -82.5t-98.5 -52.5t-103.5 -18.5q-47 0 -91 17.5t-67 48.5h-4l-4 -555 h-231l8 1411h-141z" />
<glyph unicode="&#xb6;" horiz-adv-x="1228" d="M98 1049q0 102 35 175.5t97.5 120t150.5 68t194 21.5h508v-1833h-192v1665h-215v-1665h-193v1075q-80 0 -149.5 27.5t-121.5 77.5t-83 119t-31 149z" />
<glyph unicode="&#xb7;" horiz-adv-x="606" d="M158 573q0 59 43 102.5t102 43.5t102.5 -43t43.5 -103q0 -59 -43.5 -102t-102.5 -43t-102 43t-43 102z" />
<glyph unicode="&#xb8;" horiz-adv-x="569" d="M76 -444l12 127q37 -10 80 -18.5t90 -8.5q45 0 82 17.5t37 58.5t-37 57t-100 16h-23v222h143v-136h29q82 0 131 -40.5t49 -122.5q0 -53 -23.5 -91t-61.5 -63t-86 -37t-97 -12q-68 0 -132.5 10t-92.5 21z" />
<glyph unicode="&#xb9;" horiz-adv-x="788" d="M66 1262l319 182h150l-9 -731h189v-131h-537v131h168l8 587q-31 -27 -57 -43l-156 -96z" />
<glyph unicode="&#xba;" horiz-adv-x="788" d="M37 1118q0 78 26.5 141.5t75.5 109.5t117 70.5t150 24.5q98 0 164.5 -30.5t106.5 -78.5t57.5 -108.5t17.5 -118.5q0 -68 -22.5 -128t-68 -105t-113 -70.5t-159.5 -25.5q-96 0 -162.5 27.5t-108.5 71.5t-61.5 101.5t-19.5 118.5zM205 1124q0 -39 11 -75.5t33.5 -66.5 t58.5 -47t85 -17t85 18t59.5 49t35 72t11.5 86q0 104 -52.5 153.5t-128.5 49.5q-53 0 -91 -19.5t-61.5 -51.5t-34.5 -72t-11 -79z" />
<glyph unicode="&#xbb;" horiz-adv-x="1062" d="M82 330l217 252l-217 256l160 123l274 -316v-131l-274 -311zM547 330l217 252l-217 256l160 123l274 -316v-131l-274 -311z" />
<glyph unicode="&#xbc;" horiz-adv-x="1820" d="M20 1262l320 182h149l-8 -731h189v-131h-537v131h168l8 587q-31 -27 -57 -43l-156 -96zM406 -37l888 1587l133 -80l-888 -1587zM961 238v122l393 502h229l-4 -493h164v-131h-164v-107h102v-131h-378v131h108v107h-450zM1128 365q16 2 35 3t35 1h213l4 358l-4 4z" />
<glyph unicode="&#xbd;" horiz-adv-x="1820" d="M20 1262l320 182h149l-8 -731h189v-131h-537v131h168l8 587q-31 -27 -57 -43l-156 -96zM406 -37l888 1587l133 -80l-888 -1587zM1065 0v135l45 29q43 29 115.5 82t141.5 117.5t119 134t50 129.5q0 53 -35 89t-106 36q-47 0 -78 -17.5t-49.5 -42t-26.5 -51.5t-8 -43h-168 q0 39 14.5 88t52 93t102 74t165.5 30q145 0 231 -57.5t86 -190.5q0 -55 -25.5 -108.5t-71.5 -105.5t-107.5 -106.5t-135.5 -111.5q-23 -18 -47 -34.5t-47 -29.5v-4q25 2 56.5 5t56.5 3h327v-143h-657z" />
<glyph unicode="&#xbe;" horiz-adv-x="1820" d="M78 1214q0 31 14 73t52 82t102.5 67.5t163.5 27.5q154 0 225.5 -61.5t71.5 -151.5q0 -47 -17.5 -81.5t-46.5 -60.5t-65.5 -40t-77.5 -20v-5q49 -4 93 -19t78 -43t53 -68t19 -91q0 -55 -21.5 -103t-68.5 -83t-119.5 -55.5t-173.5 -20.5q-111 0 -172 17.5t-94 29.5v146 q43 -23 104.5 -42.5t151.5 -19.5q39 0 77 7.5t68.5 23.5t49 40.5t18.5 61.5q0 45 -22.5 72t-56 42t-72.5 20.5t-74 5.5h-55v118h18q37 0 76 7.5t72.5 26t55 47t21.5 71.5q0 39 -33.5 68.5t-93.5 29.5q-43 0 -72.5 -13t-48 -31.5t-25.5 -39t-7 -35.5h-168zM406 -37l888 1587 l133 -80l-888 -1587zM961 238v122l393 502h229l-4 -493h164v-131h-164v-107h102v-131h-378v131h108v107h-450zM1128 365q16 2 35 3t35 1h213l4 358l-4 4z" />
<glyph unicode="&#xbf;" horiz-adv-x="985" d="M98 -164q0 104 53.5 196.5t163.5 164.5l189 120q49 33 68.5 57.5t19.5 67.5q0 29 -13.5 53.5t-27.5 41.5l-12 12l202 76l17 -21q20 -29 41.5 -73t21.5 -101q0 -53 -22.5 -95t-59.5 -78t-83 -64.5t-91 -55.5q-117 -66 -165 -130t-48 -154q0 -49 21.5 -88t59.5 -67t87 -42 t105 -14q80 0 141 16t84 27l12 -181q-18 -6 -94 -24.5t-193 -18.5t-206.5 28t-149 78t-90.5 118.5t-31 150.5zM504 932q0 66 46 112t112 46t111.5 -46t45.5 -112t-46 -112t-111 -46q-66 0 -112 46t-46 112z" />
<glyph unicode="&#xc0;" horiz-adv-x="1554" d="M25 0v168h122l521 1266h254l481 -1266h127v-168h-524v168h131l-123 356h-504l-133 -356h147v-168h-499zM432 1806l123 115l414 -344l-129 -98zM575 705h379l-141 405q-16 47 -24.5 78t-12.5 53h-4q-4 -23 -12 -53.5t-27 -77.5z" />
<glyph unicode="&#xc1;" horiz-adv-x="1554" d="M25 0v168h122l521 1266h254l481 -1266h127v-168h-524v168h131l-123 356h-504l-133 -356h147v-168h-499zM575 705h379l-141 405q-16 47 -24.5 78t-12.5 53h-4q-4 -23 -12 -53.5t-27 -77.5zM588 1577l413 344l123 -115l-407 -327z" />
<glyph unicode="&#xc2;" horiz-adv-x="1554" d="M25 0v168h122l521 1266h254l481 -1266h127v-168h-524v168h131l-123 356h-504l-133 -356h147v-168h-499zM371 1604l334 286h147l334 -286l-135 -111l-273 242l-274 -242zM575 705h379l-141 405q-16 47 -24.5 78t-12.5 53h-4q-4 -23 -12 -53.5t-27 -77.5z" />
<glyph unicode="&#xc3;" horiz-adv-x="1554" d="M25 0v168h122l521 1266h254l481 -1266h127v-168h-524v168h131l-123 356h-504l-133 -356h147v-168h-499zM385 1642l16 31q10 18 30 46t50.5 54.5t70.5 45t93 18.5q49 0 88 -16.5t72 -38.5q35 -20 64.5 -38t62.5 -18q35 0 56.5 23t39.5 45l23 27l120 -86l-22 -31 q-43 -59 -91 -102t-124 -43q-39 0 -80 17t-80 37.5t-71.5 38t-57.5 17.5q-39 0 -61.5 -22.5t-40.5 -53.5l-15 -24zM575 705h379l-141 405q-16 47 -24.5 78t-12.5 53h-4q-4 -23 -12 -53.5t-27 -77.5z" />
<glyph unicode="&#xc4;" horiz-adv-x="1554" d="M25 0v168h122l521 1266h254l481 -1266h127v-168h-524v168h131l-123 356h-504l-133 -356h147v-168h-499zM408 1692q0 59 43 102t102 43t102 -43t43 -102t-43 -102.5t-102 -43.5t-102 43.5t-43 102.5zM575 705h379l-141 405q-16 47 -24.5 78t-12.5 53h-4q-4 -23 -12 -53.5 t-27 -77.5zM858 1692q0 59 43 102t103 43q59 0 102 -43t43 -102t-43 -102.5t-102 -43.5t-102.5 43.5t-43.5 102.5z" />
<glyph unicode="&#xc5;" horiz-adv-x="1554" d="M25 0v168h122l521 1266h254l481 -1266h127v-168h-524v168h131l-123 356h-504l-133 -356h147v-168h-499zM557 1677q0 43 16.5 81t46 66.5t70.5 45t88 16.5t88 -16.5t71 -45t46 -66.5t16 -81t-16 -80.5t-46 -66.5t-71 -45.5t-88 -16.5t-88 16.5t-70.5 45.5t-46 66.5 t-16.5 80.5zM575 705h379l-141 405q-16 47 -24.5 78t-12.5 53h-4q-4 -23 -12 -53.5t-27 -77.5zM688 1677q0 -41 27.5 -65.5t62.5 -24.5t62.5 24.5t27.5 65.5t-27.5 65.5t-62.5 24.5t-62.5 -24.5t-27.5 -65.5z" />
<glyph unicode="&#xc6;" horiz-adv-x="2048" d="M4 0v168h125l713 1266h1042l12 -375h-192l-12 207h-387l-5 -475h392v-181h-392l-4 -442h443l16 235h193l-17 -403h-1009v168h145l4 442h-471l-242 -442h158v-168h-512zM688 791h383l4 475h-131z" />
<glyph unicode="&#xc7;" horiz-adv-x="1402" d="M84 702q0 168 54.5 306.5t154.5 239t244.5 155.5t322.5 55q135 0 255 -24.5t192 -53.5v-366h-205v229q-41 10 -101.5 22.5t-142.5 12.5q-258 0 -389 -148.5t-131 -418.5q0 -123 35 -224.5t99.5 -175t154.5 -114.5t200 -41q74 0 144.5 6t111.5 14l9 258h204l-8 -391 q-61 -20 -166.5 -40.5t-220.5 -27.5v-84h29q82 0 131 -40.5t49 -122.5q0 -53 -23.5 -91t-61.5 -63t-86 -37t-97 -12q-68 0 -132.5 10t-93.5 21l13 127q37 -10 80 -18.5t90 -8.5q45 0 82 17.5t37 58.5t-37 57t-101 16h-22v170q-172 12 -298 74t-210 159t-125 223t-41 271z " />
<glyph unicode="&#xc8;" d="M80 1266v168h1007l9 -377h-191l-12 209h-416l-4 -443h410v-180h-410l-4 -475h436l17 233h192l-16 -401h-1004v168h144l8 1098h-166zM262 1806l123 115l414 -344l-129 -98z" />
<glyph unicode="&#xc9;" d="M80 1266v168h1007l9 -377h-191l-12 209h-416l-4 -443h410v-180h-410l-4 -475h436l17 233h192l-16 -401h-1004v168h144l8 1098h-166zM418 1577l413 344l123 -115l-407 -327z" />
<glyph unicode="&#xca;" d="M80 1266v168h1007l9 -377h-191l-12 209h-416l-4 -443h410v-180h-410l-4 -475h436l17 233h192l-16 -401h-1004v168h144l8 1098h-166zM201 1604l334 286h147l334 -286l-135 -111l-273 242l-274 -242z" />
<glyph unicode="&#xcb;" d="M80 1266v168h1007l9 -377h-191l-12 209h-416l-4 -443h410v-180h-410l-4 -475h436l17 233h192l-16 -401h-1004v168h144l8 1098h-166zM238 1692q0 59 43 102t102 43t102 -43t43 -102t-43 -102.5t-102 -43.5t-102 43.5t-43 102.5zM688 1692q0 59 43 102t103 43q59 0 102 -43 t43 -102t-43 -102.5t-102 -43.5t-102.5 43.5t-43.5 102.5z" />
<glyph unicode="&#xcc;" horiz-adv-x="720" d="M14 1806l123 115l414 -344l-129 -98zM96 0v168h146l8 1098h-154v168h529v-168h-146l-8 -1098h154v-168h-529z" />
<glyph unicode="&#xcd;" horiz-adv-x="720" d="M96 0v168h146l8 1098h-154v168h529v-168h-146l-8 -1098h154v-168h-529zM170 1577l414 344l123 -115l-408 -327z" />
<glyph unicode="&#xce;" horiz-adv-x="720" d="M-47 1604l334 286h147l334 -286l-135 -111l-273 242l-274 -242zM96 0v168h146l8 1098h-154v168h529v-168h-146l-8 -1098h154v-168h-529z" />
<glyph unicode="&#xcf;" horiz-adv-x="720" d="M-10 1692q0 59 43 102t102 43t102.5 -43t43.5 -102t-43 -102.5t-103 -43.5q-59 0 -102 43.5t-43 102.5zM96 0v168h146l8 1098h-154v168h529v-168h-146l-8 -1098h154v-168h-529zM440 1692q0 59 43 102t103 43q59 0 102 -43t43 -102t-43 -102.5t-102 -43.5t-102.5 43.5 t-43.5 102.5z" />
<glyph unicode="&#xd0;" horiz-adv-x="1593" d="M80 0v168h145l4 491h-149v156h149l4 451h-153v168h680q172 0 307 -48.5t228.5 -137.5t141.5 -216t48 -282q0 -160 -49.5 -296.5t-142.5 -237.5t-228 -158.5t-307 -57.5h-678zM455 168h229q264 0 405.5 150.5t141.5 420.5q0 121 -35 218.5t-102.5 166t-168 105.5 t-231.5 37h-231l-4 -451h407v-156h-407z" />
<glyph unicode="&#xd1;" horiz-adv-x="1630" d="M55 1266v168h377l664 -867q16 -23 34.5 -49t38 -56t38 -57.5t32.5 -52.5h4l-8 914h-160v168h500v-168h-139l-9 -1266h-186l-717 930q-31 41 -57.5 81t-42.5 70l-4 -4l8 -909h158v-168h-498v168h139l9 1098h-181zM422 1642l16 31q10 18 29.5 46t50.5 54.5t71 45t93 18.5 q49 0 88 -16.5t72 -38.5q35 -20 64.5 -38t62.5 -18q35 0 56.5 23t39.5 45l22 27l121 -86l-22 -31q-43 -59 -91 -102t-124 -43q-39 0 -80 17t-80 37.5t-71.5 38t-57.5 17.5q-39 0 -61.5 -22.5t-40.5 -53.5l-15 -24z" />
<glyph unicode="&#xd2;" horiz-adv-x="1554" d="M84 692q0 168 51 309.5t144.5 243t227.5 157.5t300 56q156 0 278.5 -50t208.5 -142t131 -225.5t45 -299.5q0 -141 -42 -279t-129 -245.5t-220 -174.5t-313 -67q-158 0 -284 50.5t-214 143.5t-136 225t-48 298zM338 702q0 -104 25.5 -200t80 -171t136.5 -119t194 -44 q141 0 228.5 60.5t135.5 147.5t63.5 183t15.5 170q0 96 -18.5 191.5t-67 172t-130 125t-208.5 48.5q-90 0 -172 -32t-145.5 -100.5t-100.5 -175t-37 -256.5zM432 1806l123 115l414 -344l-129 -98z" />
<glyph unicode="&#xd3;" horiz-adv-x="1554" d="M84 692q0 168 51 309.5t144.5 243t227.5 157.5t300 56q156 0 278.5 -50t208.5 -142t131 -225.5t45 -299.5q0 -141 -42 -279t-129 -245.5t-220 -174.5t-313 -67q-158 0 -284 50.5t-214 143.5t-136 225t-48 298zM338 702q0 -104 25.5 -200t80 -171t136.5 -119t194 -44 q141 0 228.5 60.5t135.5 147.5t63.5 183t15.5 170q0 96 -18.5 191.5t-67 172t-130 125t-208.5 48.5q-90 0 -172 -32t-145.5 -100.5t-100.5 -175t-37 -256.5zM588 1577l413 344l123 -115l-407 -327z" />
<glyph unicode="&#xd4;" horiz-adv-x="1554" d="M84 692q0 168 51 309.5t144.5 243t227.5 157.5t300 56q156 0 278.5 -50t208.5 -142t131 -225.5t45 -299.5q0 -141 -42 -279t-129 -245.5t-220 -174.5t-313 -67q-158 0 -284 50.5t-214 143.5t-136 225t-48 298zM338 702q0 -104 25.5 -200t80 -171t136.5 -119t194 -44 q141 0 228.5 60.5t135.5 147.5t63.5 183t15.5 170q0 96 -18.5 191.5t-67 172t-130 125t-208.5 48.5q-90 0 -172 -32t-145.5 -100.5t-100.5 -175t-37 -256.5zM371 1604l334 286h147l334 -286l-135 -111l-273 242l-274 -242z" />
<glyph unicode="&#xd5;" horiz-adv-x="1554" d="M84 692q0 168 51 309.5t144.5 243t227.5 157.5t300 56q156 0 278.5 -50t208.5 -142t131 -225.5t45 -299.5q0 -141 -42 -279t-129 -245.5t-220 -174.5t-313 -67q-158 0 -284 50.5t-214 143.5t-136 225t-48 298zM338 702q0 -104 25.5 -200t80 -171t136.5 -119t194 -44 q141 0 228.5 60.5t135.5 147.5t63.5 183t15.5 170q0 96 -18.5 191.5t-67 172t-130 125t-208.5 48.5q-90 0 -172 -32t-145.5 -100.5t-100.5 -175t-37 -256.5zM385 1642l16 31q10 18 30 46t50.5 54.5t70.5 45t93 18.5q49 0 88 -16.5t72 -38.5q35 -20 64.5 -38t62.5 -18 q35 0 56.5 23t39.5 45l23 27l120 -86l-22 -31q-43 -59 -91 -102t-124 -43q-39 0 -80 17t-80 37.5t-71.5 38t-57.5 17.5q-39 0 -61.5 -22.5t-40.5 -53.5l-15 -24z" />
<glyph unicode="&#xd6;" horiz-adv-x="1554" d="M84 692q0 168 51 309.5t144.5 243t227.5 157.5t300 56q156 0 278.5 -50t208.5 -142t131 -225.5t45 -299.5q0 -141 -42 -279t-129 -245.5t-220 -174.5t-313 -67q-158 0 -284 50.5t-214 143.5t-136 225t-48 298zM338 702q0 -104 25.5 -200t80 -171t136.5 -119t194 -44 q141 0 228.5 60.5t135.5 147.5t63.5 183t15.5 170q0 96 -18.5 191.5t-67 172t-130 125t-208.5 48.5q-90 0 -172 -32t-145.5 -100.5t-100.5 -175t-37 -256.5zM408 1692q0 59 43 102t102 43t102 -43t43 -102t-43 -102.5t-102 -43.5t-102 43.5t-43 102.5zM858 1692q0 59 43 102 t103 43q59 0 102 -43t43 -102t-43 -102.5t-102 -43.5t-102.5 43.5t-43.5 102.5z" />
<glyph unicode="&#xd7;" horiz-adv-x="1228" d="M141 158l361 360l-361 361l113 112l360 -360l361 360l112 -112l-360 -361l360 -360l-112 -113l-361 361l-360 -361z" />
<glyph unicode="&#xd8;" horiz-adv-x="1554" d="M84 692q0 168 51 309.5t144.5 243t227.5 157.5t300 56t297 -59l141 229l127 -82l-137 -225q113 -92 174 -238.5t61 -341.5q0 -141 -42 -279t-129 -245.5t-220 -174.5t-313 -67q-176 0 -313 64l-162 -264l-127 82l162 264q-117 92 -179.5 236.5t-62.5 334.5zM338 702 q0 -109 26.5 -207t84.5 -171l546 897q-84 45 -202 45q-90 0 -172 -32t-145.5 -100.5t-100.5 -175t-37 -256.5zM565 221q90 -53 209 -53q141 0 228.5 60.5t135.5 147.5t63.5 183t15.5 170q0 106 -23 209.5t-82 181.5z" />
<glyph unicode="&#xd9;" horiz-adv-x="1554" d="M61 1266v168h525v-168h-146l-2 -719q0 -41 2 -83t9.5 -81t23.5 -74t45 -61q49 -47 106.5 -63.5t149.5 -16.5q104 0 165.5 16.5t111.5 65.5q49 49 64 117.5t18 173.5l4 725h-168v168h524v-168h-137l-4 -770q0 -143 -43 -241.5t-117 -162.5q-70 -59 -181.5 -88t-238.5 -29 q-162 0 -261 30t-169 89q-78 66 -105.5 162t-27.5 238q0 207 1 396t3 376h-152zM432 1806l123 115l414 -344l-129 -98z" />
<glyph unicode="&#xda;" horiz-adv-x="1554" d="M61 1266v168h525v-168h-146l-2 -719q0 -41 2 -83t9.5 -81t23.5 -74t45 -61q49 -47 106.5 -63.5t149.5 -16.5q104 0 165.5 16.5t111.5 65.5q49 49 64 117.5t18 173.5l4 725h-168v168h524v-168h-137l-4 -770q0 -143 -43 -241.5t-117 -162.5q-70 -59 -181.5 -88t-238.5 -29 q-162 0 -261 30t-169 89q-78 66 -105.5 162t-27.5 238q0 207 1 396t3 376h-152zM588 1577l413 344l123 -115l-407 -327z" />
<glyph unicode="&#xdb;" horiz-adv-x="1554" d="M61 1266v168h525v-168h-146l-2 -719q0 -41 2 -83t9.5 -81t23.5 -74t45 -61q49 -47 106.5 -63.5t149.5 -16.5q104 0 165.5 16.5t111.5 65.5q49 49 64 117.5t18 173.5l4 725h-168v168h524v-168h-137l-4 -770q0 -143 -43 -241.5t-117 -162.5q-70 -59 -181.5 -88t-238.5 -29 q-162 0 -261 30t-169 89q-78 66 -105.5 162t-27.5 238q0 207 1 396t3 376h-152zM371 1604l334 286h147l334 -286l-135 -111l-273 242l-274 -242z" />
<glyph unicode="&#xdc;" horiz-adv-x="1554" d="M61 1266v168h525v-168h-146l-2 -719q0 -41 2 -83t9.5 -81t23.5 -74t45 -61q49 -47 106.5 -63.5t149.5 -16.5q104 0 165.5 16.5t111.5 65.5q49 49 64 117.5t18 173.5l4 725h-168v168h524v-168h-137l-4 -770q0 -143 -43 -241.5t-117 -162.5q-70 -59 -181.5 -88t-238.5 -29 q-162 0 -261 30t-169 89q-78 66 -105.5 162t-27.5 238q0 207 1 396t3 376h-152zM408 1692q0 59 43 102t102 43t102 -43t43 -102t-43 -102.5t-102 -43.5t-102 43.5t-43 102.5zM858 1692q0 59 43 102t103 43q59 0 102 -43t43 -102t-43 -102.5t-102 -43.5t-102.5 43.5 t-43.5 102.5z" />
<glyph unicode="&#xdd;" horiz-adv-x="1478" d="M8 1266v168h524v-168h-139q25 -25 41 -49l330 -449l326 449q10 14 20 25t23 24h-162v168h499v-168h-127l-483 -674l-8 -424h152v-168h-525v168h144l8 424l-498 674h-125zM549 1577l414 344l122 -115l-407 -327z" />
<glyph unicode="&#xde;" d="M80 0v168h145l8 1098h-153v168h528v-168h-145v-99h158q72 0 124 -4t90.5 -11t68.5 -19.5t59 -28.5q86 -51 135 -143.5t49 -208.5q0 -121 -55.5 -224.5t-145.5 -156.5q-66 -39 -127 -53.5t-151 -14.5h-211l-2 -135h153v-168h-528zM457 471h161q78 0 132.5 20.5t89 56.5 t50 86t15.5 109q0 63 -22.5 113.5t-57.5 81.5q-45 39 -101 50t-136 11h-127z" />
<glyph unicode="&#xdf;" horiz-adv-x="1517" d="M86 897v168h162l2 102q2 90 40 169t108.5 137.5t172 92t230.5 33.5q55 0 140 -10t164 -43t136 -95t57 -169q0 -88 -40.5 -155.5t-108.5 -110.5l-137 -88q-51 -33 -79 -65t-28 -68q0 -39 18.5 -59.5t69.5 -41.5l234 -90q104 -41 154.5 -106.5t50.5 -178.5q0 -84 -34 -147 t-89.5 -105t-128 -62.5t-150.5 -20.5q-111 0 -199 14t-137 27v290h180v-143q29 -8 81.5 -14t95.5 -6q76 0 119.5 42t43.5 107q0 47 -21.5 77t-84.5 52l-219 78q-111 39 -156 99.5t-45 146.5q0 76 27.5 127t103.5 104l174 127q57 41 72.5 77t15.5 77q0 25 -14 51t-47 49 t-84 38t-125 15q-170 0 -253 -84t-83 -217l-4 -950h131v-168h-487v168h129l4 729h-162z" />
<glyph unicode="&#xe0;" d="M119 281q0 104 47 167.5t116.5 97.5t149.5 45t146 15l219 12v80q0 49 -10.5 90t-37 71t-72.5 46.5t-116 16.5q-59 0 -112.5 -13.5t-79.5 -23.5v-156h-205v264q20 10 57 26.5t89 32t121 27t155 11.5q119 0 198.5 -29t128 -81t68.5 -128t20 -170q0 -129 -3 -257t-5 -257 h144v-168h-338q0 51 4 109.5t14 111.5h-4q-16 -45 -43 -89t-67.5 -79t-100 -56.5t-143.5 -21.5q-96 0 -161 29t-104.5 73t-57 98t-17.5 106zM262 1516l123 114l414 -344l-129 -98zM348 299q0 -59 44 -101t126 -42q68 0 119 23.5t86 61.5t52.5 86t17.5 99v43q-90 0 -170 -5 t-141.5 -21.5t-97.5 -50.5t-36 -93z" />
<glyph unicode="&#xe1;" d="M119 281q0 104 47 167.5t116.5 97.5t149.5 45t146 15l219 12v80q0 49 -10.5 90t-37 71t-72.5 46.5t-116 16.5q-59 0 -112.5 -13.5t-79.5 -23.5v-156h-205v264q20 10 57 26.5t89 32t121 27t155 11.5q119 0 198.5 -29t128 -81t68.5 -128t20 -170q0 -129 -3 -257t-5 -257 h144v-168h-338q0 51 4 109.5t14 111.5h-4q-16 -45 -43 -89t-67.5 -79t-100 -56.5t-143.5 -21.5q-96 0 -161 29t-104.5 73t-57 98t-17.5 106zM348 299q0 -59 44 -101t126 -42q68 0 119 23.5t86 61.5t52.5 86t17.5 99v43q-90 0 -170 -5t-141.5 -21.5t-97.5 -50.5t-36 -93z M418 1286l413 344l123 -114l-407 -328z" />
<glyph unicode="&#xe2;" d="M119 281q0 104 47 167.5t116.5 97.5t149.5 45t146 15l219 12v80q0 49 -10.5 90t-37 71t-72.5 46.5t-116 16.5q-59 0 -112.5 -13.5t-79.5 -23.5v-156h-205v264q20 10 57 26.5t89 32t121 27t155 11.5q119 0 198.5 -29t128 -81t68.5 -128t20 -170q0 -129 -3 -257t-5 -257 h144v-168h-338q0 51 4 109.5t14 111.5h-4q-16 -45 -43 -89t-67.5 -79t-100 -56.5t-143.5 -21.5q-96 0 -161 29t-104.5 73t-57 98t-17.5 106zM188 1313l334 286h148l334 -286l-136 -111l-272 242l-274 -242zM348 299q0 -59 44 -101t126 -42q68 0 119 23.5t86 61.5t52.5 86 t17.5 99v43q-90 0 -170 -5t-141.5 -21.5t-97.5 -50.5t-36 -93z" />
<glyph unicode="&#xe3;" d="M119 281q0 104 47 167.5t116.5 97.5t149.5 45t146 15l219 12v80q0 49 -10.5 90t-37 71t-72.5 46.5t-116 16.5q-59 0 -112.5 -13.5t-79.5 -23.5v-156h-205v264q20 10 57 26.5t89 32t121 27t155 11.5q119 0 198.5 -29t128 -81t68.5 -128t20 -170q0 -129 -3 -257t-5 -257 h144v-168h-338q0 51 4 109.5t14 111.5h-4q-16 -45 -43 -89t-67.5 -79t-100 -56.5t-143.5 -21.5q-96 0 -161 29t-104.5 73t-57 98t-17.5 106zM203 1352l16 30q10 18 29.5 46t50.5 54.5t71 45t93 18.5q49 0 88 -16.5t72 -38.5q35 -20 64.5 -37.5t62.5 -17.5q35 0 56 22.5 t40 44.5l22 27l121 -86l-22 -31q-43 -59 -91.5 -102t-123.5 -43q-39 0 -80 17.5t-80 37.5t-72 37.5t-57 17.5q-39 0 -61.5 -22.5t-41.5 -52.5l-14 -25zM348 299q0 -59 44 -101t126 -42q68 0 119 23.5t86 61.5t52.5 86t17.5 99v43q-90 0 -170 -5t-141.5 -21.5t-97.5 -50.5 t-36 -93z" />
<glyph unicode="&#xe4;" d="M119 281q0 104 47 167.5t116.5 97.5t149.5 45t146 15l219 12v80q0 49 -10.5 90t-37 71t-72.5 46.5t-116 16.5q-59 0 -112.5 -13.5t-79.5 -23.5v-156h-205v264q20 10 57 26.5t89 32t121 27t155 11.5q119 0 198.5 -29t128 -81t68.5 -128t20 -170q0 -129 -3 -257t-5 -257 h144v-168h-338q0 51 4 109.5t14 111.5h-4q-16 -45 -43 -89t-67.5 -79t-100 -56.5t-143.5 -21.5q-96 0 -161 29t-104.5 73t-57 98t-17.5 106zM225 1401q0 59 43 102t103 43q59 0 102 -43t43 -102t-43 -102.5t-102 -43.5t-102.5 43.5t-43.5 102.5zM348 299q0 -59 44 -101 t126 -42q68 0 119 23.5t86 61.5t52.5 86t17.5 99v43q-90 0 -170 -5t-141.5 -21.5t-97.5 -50.5t-36 -93zM676 1401q0 59 43 102t102 43t102.5 -43t43.5 -102t-43 -102.5t-103 -43.5q-59 0 -102 43.5t-43 102.5z" />
<glyph unicode="&#xe5;" d="M119 281q0 104 47 167.5t116.5 97.5t149.5 45t146 15l219 12v80q0 49 -10.5 90t-37 71t-72.5 46.5t-116 16.5q-59 0 -112.5 -13.5t-79.5 -23.5v-156h-205v264q20 10 57 26.5t89 32t121 27t155 11.5q119 0 198.5 -29t128 -81t68.5 -128t20 -170q0 -129 -3 -257t-5 -257 h144v-168h-338q0 51 4 109.5t14 111.5h-4q-16 -45 -43 -89t-67.5 -79t-100 -56.5t-143.5 -21.5q-96 0 -161 29t-104.5 73t-57 98t-17.5 106zM348 299q0 -59 44 -101t126 -42q68 0 119 23.5t86 61.5t52.5 86t17.5 99v43q-90 0 -170 -5t-141.5 -21.5t-97.5 -50.5t-36 -93z M375 1366q0 43 16.5 81t46 66.5t70.5 45t88 16.5t88 -16.5t70.5 -45t46 -66.5t16.5 -81t-16.5 -81t-46 -66.5t-70.5 -45t-88 -16.5t-88 16.5t-70.5 45t-46 66.5t-16.5 81zM506 1366q0 -41 27.5 -65.5t62.5 -24.5t62.5 24.5t27.5 65.5t-27.5 65.5t-62.5 24.5t-62.5 -24.5 t-27.5 -65.5z" />
<glyph unicode="&#xe6;" horiz-adv-x="1820" d="M119 281q0 104 47 167.5t116.5 97.5t149.5 45t146 15l219 12v80q0 49 -10.5 90t-37 71t-72.5 46.5t-116 16.5q-59 0 -112.5 -13.5t-79.5 -23.5v-156h-205v264q25 8 68.5 24.5t100 33t120 28t127.5 11.5q51 0 103 -9.5t98 -32t84 -61.5t63 -100q35 86 124 144.5t220 58.5 t218 -48.5t140 -127t76 -181t23 -213.5v-24l-728 -21q0 -156 87.5 -237.5t269.5 -81.5q106 0 192 28.5t133 51.5l-8 -185q-47 -25 -142 -50.5t-210 -25.5q-78 0 -147.5 12.5t-126 42t-99.5 79t-65 120.5h-4q-45 -135 -138.5 -194.5t-257.5 -59.5q-106 0 -176.5 29t-112.5 73 t-59.5 98t-17.5 106zM348 299q0 -59 44 -101t126 -42q68 0 119 23.5t86 61.5t52.5 86t17.5 99v43q-90 0 -170 -5t-141.5 -21.5t-97.5 -50.5t-36 -93zM1001 631l498 20v13q0 37 -11 82t-40 83.5t-77 65.5t-122 27q-51 0 -96 -14.5t-79 -48.5t-53.5 -90t-19.5 -138z" />
<glyph unicode="&#xe7;" horiz-adv-x="1024" d="M74 526q0 123 36.5 225.5t109.5 178.5t180.5 118t246.5 42q123 0 195.5 -19.5t107.5 -36.5v-301h-192v158q-25 8 -60.5 13t-74.5 5q-80 0 -139.5 -27.5t-99.5 -76.5t-60.5 -114.5t-20.5 -141.5q0 -70 18.5 -137.5t61.5 -121.5t114.5 -88t178.5 -34q78 0 154.5 19.5 t117.5 41.5l-12 -198q-29 -12 -97.5 -31.5t-156.5 -24.5v-84h29q82 0 131 -40.5t49 -122.5q0 -53 -23.5 -91t-61.5 -63t-86 -37t-97 -12q-68 0 -132.5 10t-93.5 21l13 127q37 -10 79.5 -18.5t90.5 -8.5q45 0 81.5 17.5t36.5 58.5t-36.5 57t-100.5 16h-22v177 q-129 16 -218.5 68t-143.5 128t-78.5 166t-24.5 182z" />
<glyph unicode="&#xe8;" horiz-adv-x="1138" d="M74 528q0 119 32.5 221.5t99 178.5t164 119t226.5 43q119 0 210 -42t150.5 -117t90 -178.5t30.5 -226.5v-30h-762q0 -78 28 -140.5t76 -107.5t114.5 -68.5t146.5 -23.5q100 0 186 23.5t156 58.5l-12 -189q-55 -23 -154.5 -48.5t-220.5 -25.5q-133 0 -236.5 40t-176 112 t-110.5 174t-38 227zM223 1516l123 114l414 -344l-129 -98zM315 651h521v21q0 33 -12.5 76t-41 81.5t-77 65.5t-121.5 27q-74 0 -123 -25t-81 -62.5t-47.5 -86t-17.5 -97.5z" />
<glyph unicode="&#xe9;" horiz-adv-x="1138" d="M74 528q0 119 32.5 221.5t99 178.5t164 119t226.5 43q119 0 210 -42t150.5 -117t90 -178.5t30.5 -226.5v-30h-762q0 -78 28 -140.5t76 -107.5t114.5 -68.5t146.5 -23.5q100 0 186 23.5t156 58.5l-12 -189q-55 -23 -154.5 -48.5t-220.5 -25.5q-133 0 -236.5 40t-176 112 t-110.5 174t-38 227zM315 651h521v21q0 33 -12.5 76t-41 81.5t-77 65.5t-121.5 27q-74 0 -123 -25t-81 -62.5t-47.5 -86t-17.5 -97.5zM379 1286l414 344l122 -114l-407 -328z" />
<glyph unicode="&#xea;" horiz-adv-x="1138" d="M74 528q0 119 32.5 221.5t99 178.5t164 119t226.5 43q119 0 210 -42t150.5 -117t90 -178.5t30.5 -226.5v-30h-762q0 -78 28 -140.5t76 -107.5t114.5 -68.5t146.5 -23.5q100 0 186 23.5t156 58.5l-12 -189q-55 -23 -154.5 -48.5t-220.5 -25.5q-133 0 -236.5 40t-176 112 t-110.5 174t-38 227zM162 1313l334 286h147l334 -286l-135 -111l-273 242l-274 -242zM315 651h521v21q0 33 -12.5 76t-41 81.5t-77 65.5t-121.5 27q-74 0 -123 -25t-81 -62.5t-47.5 -86t-17.5 -97.5z" />
<glyph unicode="&#xeb;" horiz-adv-x="1138" d="M74 528q0 119 32.5 221.5t99 178.5t164 119t226.5 43q119 0 210 -42t150.5 -117t90 -178.5t30.5 -226.5v-30h-762q0 -78 28 -140.5t76 -107.5t114.5 -68.5t146.5 -23.5q100 0 186 23.5t156 58.5l-12 -189q-55 -23 -154.5 -48.5t-220.5 -25.5q-133 0 -236.5 40t-176 112 t-110.5 174t-38 227zM199 1401q0 59 43 102t102 43t102 -43t43 -102t-43 -102.5t-102 -43.5t-102 43.5t-43 102.5zM315 651h521v21q0 33 -12.5 76t-41 81.5t-77 65.5t-121.5 27q-74 0 -123 -25t-81 -62.5t-47.5 -86t-17.5 -97.5zM649 1401q0 59 43 102t103 43q59 0 102 -43 t43 -102t-43 -102.5t-102 -43.5t-102.5 43.5t-43.5 102.5z" />
<glyph unicode="&#xec;" horiz-adv-x="645" d="M-23 1516l123 114l414 -344l-129 -98zM61 897v168h392l-4 -897h143v-168h-512v168h139l4 729h-162z" />
<glyph unicode="&#xed;" horiz-adv-x="645" d="M61 897v168h392l-4 -897h143v-168h-512v168h139l4 729h-162zM133 1286l414 344l123 -114l-408 -328z" />
<glyph unicode="&#xee;" horiz-adv-x="645" d="M-84 1313l334 286h147l334 -286l-135 -111l-272 242l-275 -242zM61 897v168h392l-4 -897h143v-168h-512v168h139l4 729h-162z" />
<glyph unicode="&#xef;" horiz-adv-x="645" d="M-47 1401q0 59 43 102t102 43t102.5 -43t43.5 -102t-43 -102.5t-103 -43.5q-59 0 -102 43.5t-43 102.5zM61 897v168h392l-4 -897h143v-168h-512v168h139l4 729h-162zM403 1401q0 59 43 102t103 43q59 0 102 -43t43 -102t-43 -102.5t-102 -43.5t-102.5 43.5t-43.5 102.5z " />
<glyph unicode="&#xf0;" d="M68 510q0 131 41 237.5t111.5 182.5t165.5 118t206 42q66 0 130 -17.5t112 -54.5l4 4q-35 66 -87.5 134.5t-117.5 131.5l-203 -104l-92 104l188 96q-16 12 -37.5 29t-45 34t-46 31.5t-39.5 24.5l174 96q94 -57 175 -120l186 96l92 -105l-172 -90q78 -80 140.5 -165 t105.5 -179t65.5 -202.5t22.5 -235.5q0 -141 -35 -256t-103.5 -197t-171 -126t-239.5 -44q-143 0 -243.5 45.5t-164 121t-93 171t-29.5 197.5zM309 518q0 -68 17.5 -130t53.5 -111.5t91 -79t133 -29.5t135.5 30.5t94 83t54 122t17.5 147.5q0 90 -22.5 155.5t-60.5 107.5 t-90 62.5t-111 20.5q-86 0 -145.5 -33t-96.5 -86t-53.5 -121.5t-16.5 -138.5z" />
<glyph unicode="&#xf1;" horiz-adv-x="1366" d="M74 897v168h379q0 -53 -5.5 -110.5t-15.5 -125.5h4q16 51 47 98.5t77 83.5t108.5 57.5t142.5 21.5q188 0 279.5 -110t91.5 -302q0 -129 -3 -255t-5 -255h139v-168h-490v168h121q2 117 5 234.5t3 234.5q0 113 -52 186.5t-163 73.5q-119 0 -197.5 -87t-82.5 -237l-8 -405 h143v-168h-494v168h121l4 729h-149zM291 1352l16 30q10 18 29.5 46t50.5 54.5t71 45t93 18.5q49 0 88 -16.5t72 -38.5q35 -20 64.5 -37.5t62.5 -17.5q35 0 56 22.5t40 44.5l22 27l121 -86l-22 -31q-43 -59 -91.5 -102t-123.5 -43q-39 0 -80 17.5t-80 37.5t-72 37.5t-57 17.5 q-39 0 -61.5 -22.5t-40.5 -52.5l-15 -25z" />
<glyph unicode="&#xf2;" d="M68 510q0 131 41 237.5t114.5 182.5t176 118t225.5 42q147 0 247.5 -51.5t161 -132.5t87 -181t26.5 -199q0 -115 -35 -214t-103.5 -175t-171 -119t-239.5 -43q-143 0 -243.5 45.5t-164 121t-93 171t-29.5 197.5zM262 1516l123 114l414 -344l-129 -98zM309 518 q0 -68 17.5 -130t53.5 -111.5t91 -79t133 -29.5t135.5 30.5t94 83t54 122t17.5 147.5q0 90 -22.5 155.5t-60.5 107.5t-90 62.5t-111 20.5q-86 0 -145.5 -33t-96.5 -86t-53.5 -121.5t-16.5 -138.5z" />
<glyph unicode="&#xf3;" d="M68 510q0 131 41 237.5t114.5 182.5t176 118t225.5 42q147 0 247.5 -51.5t161 -132.5t87 -181t26.5 -199q0 -115 -35 -214t-103.5 -175t-171 -119t-239.5 -43q-143 0 -243.5 45.5t-164 121t-93 171t-29.5 197.5zM309 518q0 -68 17.5 -130t53.5 -111.5t91 -79t133 -29.5 t135.5 30.5t94 83t54 122t17.5 147.5q0 90 -22.5 155.5t-60.5 107.5t-90 62.5t-111 20.5q-86 0 -145.5 -33t-96.5 -86t-53.5 -121.5t-16.5 -138.5zM418 1286l413 344l123 -114l-407 -328z" />
<glyph unicode="&#xf4;" d="M68 510q0 131 41 237.5t114.5 182.5t176 118t225.5 42q147 0 247.5 -51.5t161 -132.5t87 -181t26.5 -199q0 -115 -35 -214t-103.5 -175t-171 -119t-239.5 -43q-143 0 -243.5 45.5t-164 121t-93 171t-29.5 197.5zM201 1313l334 286h147l334 -286l-135 -111l-273 242 l-274 -242zM309 518q0 -68 17.5 -130t53.5 -111.5t91 -79t133 -29.5t135.5 30.5t94 83t54 122t17.5 147.5q0 90 -22.5 155.5t-60.5 107.5t-90 62.5t-111 20.5q-86 0 -145.5 -33t-96.5 -86t-53.5 -121.5t-16.5 -138.5z" />
<glyph unicode="&#xf5;" d="M68 510q0 131 41 237.5t114.5 182.5t176 118t225.5 42q147 0 247.5 -51.5t161 -132.5t87 -181t26.5 -199q0 -115 -35 -214t-103.5 -175t-171 -119t-239.5 -43q-143 0 -243.5 45.5t-164 121t-93 171t-29.5 197.5zM215 1352l16 30q10 18 30 46t50.5 54.5t70.5 45t93 18.5 q49 0 88 -16.5t72 -38.5q35 -20 64.5 -37.5t62.5 -17.5q35 0 56.5 22.5t39.5 44.5l23 27l120 -86l-22 -31q-43 -59 -91 -102t-124 -43q-39 0 -80 17.5t-80 37.5t-71.5 37.5t-57.5 17.5q-39 0 -61.5 -22.5t-40.5 -52.5l-15 -25zM309 518q0 -68 17.5 -130t53.5 -111.5t91 -79 t133 -29.5t135.5 30.5t94 83t54 122t17.5 147.5q0 90 -22.5 155.5t-60.5 107.5t-90 62.5t-111 20.5q-86 0 -145.5 -33t-96.5 -86t-53.5 -121.5t-16.5 -138.5z" />
<glyph unicode="&#xf6;" d="M68 510q0 131 41 237.5t114.5 182.5t176 118t225.5 42q147 0 247.5 -51.5t161 -132.5t87 -181t26.5 -199q0 -115 -35 -214t-103.5 -175t-171 -119t-239.5 -43q-143 0 -243.5 45.5t-164 121t-93 171t-29.5 197.5zM238 1401q0 59 43 102t102 43t102 -43t43 -102t-43 -102.5 t-102 -43.5t-102 43.5t-43 102.5zM309 518q0 -68 17.5 -130t53.5 -111.5t91 -79t133 -29.5t135.5 30.5t94 83t54 122t17.5 147.5q0 90 -22.5 155.5t-60.5 107.5t-90 62.5t-111 20.5q-86 0 -145.5 -33t-96.5 -86t-53.5 -121.5t-16.5 -138.5zM688 1401q0 59 43 102t103 43 q59 0 102 -43t43 -102t-43 -102.5t-102 -43.5t-102.5 43.5t-43.5 102.5z" />
<glyph unicode="&#xf7;" horiz-adv-x="1228" d="M96 434v168h1037v-168h-1037zM469 121q0 59 43 102t102 43t102.5 -43t43.5 -102t-43 -102.5t-103 -43.5q-59 0 -102 43.5t-43 102.5zM469 915q0 59 43 102.5t102 43.5t102.5 -43t43.5 -103q0 -59 -43 -102t-103 -43q-59 0 -102 43t-43 102z" />
<glyph unicode="&#xf8;" d="M68 510q0 131 41 237.5t114.5 182.5t176 118t225.5 42q121 0 211 -37l116 190l123 -78l-112 -184q49 -41 84.5 -94t57 -112.5t32 -123t10.5 -125.5q0 -115 -35 -214t-103.5 -175t-171 -119t-239.5 -43t-231 43l-136 -221l-122 82l131 213q-92 78 -132 187.5t-40 230.5z M309 518q0 -59 13.5 -115.5t44.5 -105.5l360 580q-47 20 -106 20q-86 0 -145.5 -33t-96.5 -86t-53.5 -121.5t-16.5 -138.5zM477 197q51 -29 127 -29q78 0 135.5 30.5t94 83t54 122t17.5 147.5q0 150 -63 235z" />
<glyph unicode="&#xf9;" horiz-adv-x="1366" d="M74 897v168h370q-4 -160 -6 -318.5t-2 -318.5q0 -113 52.5 -186.5t156.5 -73.5q115 0 194 87t81 237l4 405h-140v168h369l-4 -897h143v-168h-368q0 53 5 110.5t15 125.5h-4q-16 -59 -53 -107.5t-87 -82.5t-109.5 -52.5t-123.5 -18.5q-172 0 -266 110t-94 298q0 131 2 258 t6 256h-141zM338 1516l123 114l413 -344l-129 -98z" />
<glyph unicode="&#xfa;" horiz-adv-x="1366" d="M74 897v168h370q-4 -160 -6 -318.5t-2 -318.5q0 -113 52.5 -186.5t156.5 -73.5q115 0 194 87t81 237l4 405h-140v168h369l-4 -897h143v-168h-368q0 53 5 110.5t15 125.5h-4q-16 -59 -53 -107.5t-87 -82.5t-109.5 -52.5t-123.5 -18.5q-172 0 -266 110t-94 298q0 131 2 258 t6 256h-141zM494 1286l413 344l123 -114l-407 -328z" />
<glyph unicode="&#xfb;" horiz-adv-x="1366" d="M74 897v168h370q-4 -160 -6 -318.5t-2 -318.5q0 -113 52.5 -186.5t156.5 -73.5q115 0 194 87t81 237l4 405h-140v168h369l-4 -897h143v-168h-368q0 53 5 110.5t15 125.5h-4q-16 -59 -53 -107.5t-87 -82.5t-109.5 -52.5t-123.5 -18.5q-172 0 -266 110t-94 298q0 131 2 258 t6 256h-141zM276 1313l334 286h148l334 -286l-136 -111l-272 242l-274 -242z" />
<glyph unicode="&#xfc;" horiz-adv-x="1366" d="M74 897v168h370q-4 -160 -6 -318.5t-2 -318.5q0 -113 52.5 -186.5t156.5 -73.5q115 0 194 87t81 237l4 405h-140v168h369l-4 -897h143v-168h-368q0 53 5 110.5t15 125.5h-4q-16 -59 -53 -107.5t-87 -82.5t-109.5 -52.5t-123.5 -18.5q-172 0 -266 110t-94 298q0 131 2 258 t6 256h-141zM293 1401q0 59 43 102t102 43t102.5 -43t43.5 -102t-43 -102.5t-103 -43.5q-59 0 -102 43.5t-43 102.5zM743 1401q0 59 43 102t103 43q59 0 102 -43t43 -102t-43 -102.5t-102 -43.5t-102.5 43.5t-43.5 102.5z" />
<glyph unicode="&#xfd;" d="M-6 897v168h487v-168h-119l205 -547q16 -41 26.5 -83t20.5 -77h4q8 35 20.5 77t27.5 83l188 547h-139v168h450v-168h-106l-324 -891q-12 -37 -31.5 -88t-42 -105.5t-47 -102.5t-47.5 -79q-72 -94 -167 -132t-199 -38q-43 0 -82 6.5t-64 16.5v180q25 -10 70 -16t80 -6 q39 0 75.5 10t73.5 41t72 85t68 142l8 23l-393 954h-115zM418 1286l413 344l123 -114l-407 -328z" />
<glyph unicode="&#xfe;" horiz-adv-x="1290" d="M53 1407v168h381l-8 -510q0 -57 -7 -113.5t-20 -103.5h4q41 109 129.5 175.5t225.5 66.5q96 0 178 -35t141.5 -99.5t93 -159t33.5 -212.5q0 -133 -38 -244t-111.5 -192.5t-180 -127t-243.5 -45.5q-57 0 -110.5 8.5t-100.5 26.5l-4 -356h170v-168h-510v168h119l8 1753 h-150zM428 201q74 -45 205 -45q80 -2 141.5 29.5t104.5 87t64.5 127t19.5 149.5q0 74 -16.5 138.5t-48.5 110.5t-81 72.5t-112 26.5q-141 0 -209 -106.5t-68 -292.5v-297z" />
<glyph unicode="&#xff;" d="M-6 897v168h487v-168h-119l205 -547q16 -41 26.5 -83t20.5 -77h4q8 35 20.5 77t27.5 83l188 547h-139v168h450v-168h-106l-324 -891q-12 -37 -31.5 -88t-42 -105.5t-47 -102.5t-47.5 -79q-72 -94 -167 -132t-199 -38q-43 0 -82 6.5t-64 16.5v180q25 -10 70 -16t80 -6 q39 0 75.5 10t73.5 41t72 85t68 142l8 23l-393 954h-115zM238 1401q0 59 43 102t102 43t102 -43t43 -102t-43 -102.5t-102 -43.5t-102 43.5t-43 102.5zM688 1401q0 59 43 102t103 43q59 0 102 -43t43 -102t-43 -102.5t-102 -43.5t-102.5 43.5t-43.5 102.5z" />
<glyph unicode="&#x152;" horiz-adv-x="2086" d="M84 711q0 186 61.5 324.5t168 229.5t251 136t312.5 45q78 0 133 -6q29 -2 52 -4t50 -2h842l12 -377h-192l-13 209h-432l-4 -443h424v-180h-424l-4 -475h455l16 233h195l-21 -401h-862q-55 0 -125 -6q-35 -2 -72 -4t-78 -2q-166 0 -303 44t-235 134t-152.5 225t-54.5 320z M338 711q0 -268 138 -405.5t407 -137.5q72 0 119 2t88 4l8 1079q-47 4 -93.5 8.5t-86.5 4.5q-139 0 -247 -38t-181.5 -111t-112.5 -175t-39 -231z" />
<glyph unicode="&#x153;" horiz-adv-x="1896" d="M84 526q0 121 33 224.5t97.5 178.5t161.5 118t228 43q86 0 149.5 -16.5t109.5 -45.5t77 -67.5t51 -83.5q16 35 48 72.5t77 68.5t103.5 51.5t128.5 20.5q131 0 218 -48.5t140 -127t75.5 -181t22.5 -213.5v-24h-727q0 -172 87 -256t270 -84q106 0 192 28.5t133 51.5 l-8 -185q-47 -25 -142.5 -50.5t-209.5 -25.5q-70 0 -133.5 8.5t-118.5 33t-101.5 67.5t-78.5 113q-57 -119 -156.5 -170.5t-235.5 -51.5q-252 0 -371.5 147.5t-119.5 403.5zM313 532q0 -80 17.5 -149.5t53.5 -119.5t89 -78.5t127 -28.5q61 0 109.5 16t82 56t51 105.5 t17.5 162.5v104q0 174 -68.5 241.5t-191.5 67.5q-74 0 -127 -28.5t-89 -78.5t-53.5 -119t-17.5 -151zM1077 651h498v13q0 37 -11.5 82t-40 83.5t-76.5 65.5t-122 27q-123 0 -185.5 -74t-62.5 -197z" />
<glyph unicode="&#x178;" horiz-adv-x="1478" d="M8 1266v168h524v-168h-139q25 -25 41 -49l330 -449l326 449q10 14 20 25t23 24h-162v168h499v-168h-127l-483 -674l-8 -424h152v-168h-525v168h144l8 424l-498 674h-125zM369 1692q0 59 43 102t102 43t102 -43t43 -102t-43 -102.5t-102 -43.5t-102 43.5t-43 102.5z M819 1692q0 59 43 102t103 43q59 0 102 -43t43 -102t-43 -102.5t-102 -43.5t-102.5 43.5t-43.5 102.5z" />
<glyph unicode="&#x2c6;" horiz-adv-x="569" d="M-123 1313l334 286h147l334 -286l-135 -111l-272 242l-275 -242z" />
<glyph unicode="&#x2dc;" horiz-adv-x="569" d="M-109 1352l17 30q10 18 29.5 46t50 54.5t70.5 45t94 18.5q49 0 88 -16.5t71 -38.5q35 -20 65 -37.5t62 -17.5q35 0 56.5 22.5t40.5 44.5l22 27l121 -86l-23 -31q-43 -59 -91 -102t-124 -43q-39 0 -80 17.5t-79.5 37.5t-71.5 37.5t-57 17.5q-39 0 -61.5 -22.5t-41.5 -52.5 l-14 -25z" />
<glyph unicode="&#x2000;" horiz-adv-x="960" />
<glyph unicode="&#x2001;" horiz-adv-x="1921" />
<glyph unicode="&#x2002;" horiz-adv-x="960" />
<glyph unicode="&#x2003;" horiz-adv-x="1921" />
<glyph unicode="&#x2004;" horiz-adv-x="640" />
<glyph unicode="&#x2005;" horiz-adv-x="480" />
<glyph unicode="&#x2006;" horiz-adv-x="320" />
<glyph unicode="&#x2007;" horiz-adv-x="320" />
<glyph unicode="&#x2008;" horiz-adv-x="240" />
<glyph unicode="&#x2009;" horiz-adv-x="384" />
<glyph unicode="&#x200a;" horiz-adv-x="106" />
<glyph unicode="&#x2010;" horiz-adv-x="833" d="M135 479v205h563v-205h-563z" />
<glyph unicode="&#x2011;" horiz-adv-x="833" d="M135 479v205h563v-205h-563z" />
<glyph unicode="&#x2012;" horiz-adv-x="833" d="M135 479v205h563v-205h-563z" />
<glyph unicode="&#x2013;" horiz-adv-x="1024" d="M0 492v180h1024v-180h-1024z" />
<glyph unicode="&#x2014;" horiz-adv-x="2048" d="M0 492v180h2048v-180h-2048z" />
<glyph unicode="&#x2018;" horiz-adv-x="606" d="M119 1139q0 43 10 93t32.5 102t58.5 103.5t85 94.5l78 67l104 -102l-34 -35q-45 -45 -75 -89t-30 -97q0 -43 16.5 -74t37 -57.5t37 -53t16.5 -59.5q0 -20 -9.5 -42.5t-28 -42t-46 -32t-64.5 -12.5q-47 0 -82 20.5t-58.5 54.5t-35.5 76t-12 85z" />
<glyph unicode="&#x2019;" horiz-adv-x="606" d="M119 1006l35 34q45 45 74.5 89.5t29.5 97.5q0 43 -16.5 73.5t-37 57t-36.5 52.5t-16 60q0 20 9 43t27.5 42.5t46 31.5t64.5 12q45 0 81 -20t59.5 -54t35.5 -76t12 -85t-10 -93t-32.5 -102.5t-58.5 -103.5t-85 -94l-78 -68z" />
<glyph unicode="&#x201a;" horiz-adv-x="606" d="M119 -309l35 35q45 45 74.5 89t29.5 97q0 43 -16.5 73.5t-37 57.5t-36.5 52.5t-16 60.5q0 20 9 42.5t27.5 42t46 32t64.5 12.5q45 0 81 -20.5t59.5 -54.5t35.5 -76t12 -85t-10 -93t-32.5 -102.5t-58.5 -103.5t-85 -94l-78 -68z" />
<glyph unicode="&#x201c;" horiz-adv-x="985" d="M82 1139q0 43 10 93t32.5 102t58.5 103.5t85 94.5l78 67l105 -102l-35 -35q-45 -45 -75 -89t-30 -97q0 -43 16.5 -74t37 -57.5t37 -53t16.5 -59.5q0 -20 -9.5 -42.5t-28 -42t-46 -32t-64.5 -12.5q-47 0 -81.5 20.5t-58.5 54.5t-36 76t-12 85zM535 1139q0 43 10 93 t32.5 102t58.5 103.5t85 94.5l78 67l104 -102l-35 -35q-45 -45 -74.5 -89t-29.5 -97q0 -43 16.5 -74t37 -57.5t36.5 -53t16 -59.5q0 -20 -9 -42.5t-27.5 -42t-46 -32t-64.5 -12.5q-47 0 -82 20.5t-58.5 54.5t-35.5 76t-12 85z" />
<glyph unicode="&#x201d;" horiz-adv-x="985" d="M82 1006l35 34q45 45 74.5 89.5t29.5 97.5q0 43 -16.5 73.5t-37 57t-36.5 52.5t-16 60q0 20 9 43t27.5 42.5t46 31.5t64.5 12q45 0 81 -20t59.5 -54t36 -76t12.5 -85t-10.5 -93t-33 -102.5t-58.5 -103.5t-85 -94l-78 -68zM535 1006l34 34q45 45 75 89.5t30 97.5 q0 43 -16.5 73.5t-37 57t-37 52.5t-16.5 60q0 20 9.5 43t28 42.5t46 31.5t64.5 12q45 0 80.5 -20t59.5 -54t36 -76t12 -85t-10 -93t-32.5 -102.5t-58.5 -103.5t-85 -94l-78 -68z" />
<glyph unicode="&#x201e;" horiz-adv-x="985" d="M82 -309l35 35q45 45 74.5 89t29.5 97q0 43 -16.5 73.5t-37 57.5t-36.5 52.5t-16 60.5q0 20 9 42.5t27.5 42t46 32t64.5 12.5q45 0 81 -20.5t59.5 -54.5t36 -76t12.5 -85t-10.5 -93t-33 -102.5t-58.5 -103.5t-85 -94l-78 -68zM535 -309l34 35q45 45 75 89t30 97 q0 43 -16.5 73.5t-37 57.5t-37 52.5t-16.5 60.5q0 20 9.5 42.5t28 42t46 32t64.5 12.5q45 0 80.5 -20.5t59.5 -54.5t36 -76t12 -85t-10 -93t-32.5 -102.5t-58.5 -103.5t-85 -94l-78 -68z" />
<glyph unicode="&#x2022;" horiz-adv-x="1024" d="M154 717q0 74 27.5 139.5t76.5 114.5t114.5 76.5t139.5 27.5t139.5 -27.5t114.5 -76.5t76.5 -114.5t27.5 -139.5t-27.5 -139.5t-76.5 -114.5t-114.5 -77t-139.5 -28t-139.5 28t-114.5 77t-76.5 114.5t-27.5 139.5z" />
<glyph unicode="&#x2026;" horiz-adv-x="2048" d="M184 127q0 66 46 112t112 46t112 -46t46 -112t-46 -112t-112 -46t-112 46t-46 112zM866 127q0 66 46 112t112 46t112 -46t46 -112t-46 -112t-112 -46t-112 46t-46 112zM1548 127q0 66 46 112t112 46t112 -46t46 -112t-46 -112t-112 -46t-112 46t-46 112z" />
<glyph unicode="&#x202f;" horiz-adv-x="384" />
<glyph unicode="&#x2039;" horiz-adv-x="606" d="M86 518v131l274 312l160 -127l-217 -252l217 -256l-160 -123z" />
<glyph unicode="&#x203a;" horiz-adv-x="606" d="M86 330l217 252l-217 256l160 123l274 -316v-131l-274 -311z" />
<glyph unicode="&#x205f;" horiz-adv-x="480" />
<glyph unicode="&#x20ac;" horiz-adv-x="1212" d="M43 522l78 164h65v100h-143l78 164h92q53 231 207 367q156 141 387 141q158 0 358 -82v-280h-168v147q-98 33 -182 33q-293 0 -379 -326h604l-77 -164h-553q-2 -14 -2 -29.5v-33.5v-37h528l-78 -164h-428q82 -358 391 -358q168 0 332 88l-4 -209q-152 -68 -342 -68 q-258 0 -414 148q-145 139 -192 399h-158z" />
<glyph unicode="&#x2122;" horiz-adv-x="2027" d="M66 1290v144h679v-144h-249v-708h-181v708h-249zM909 582v852h248l229 -607l230 607h248v-852h-168v671h-4l-248 -671h-115l-248 671h-4v-671h-168z" />
<glyph unicode="&#xe000;" horiz-adv-x="1064" d="M0 0v1065h1065v-1065h-1065z" />
</font>
</defs>
</svg>
