<?xml version="1.0" standalone="no"?>
<!DOCTYPE svg PUBLIC "-//W3C//DTD SVG 1.1//EN" "http://www.w3.org/Graphics/SVG/1.1/DTD/svg11.dtd" >
<svg xmlns="http://www.w3.org/2000/svg">
<metadata></metadata>
<defs>
<font id="caecilia_lt_std85_heavy" horiz-adv-x="606" >
<font-face units-per-em="2048" ascent="1575" descent="-473" />
<missing-glyph horiz-adv-x="500" />
<glyph unicode="&#xfb01;" horiz-adv-x="1327" d="M61 862v209h136q0 119 17 217t70.5 169t152 110t259.5 39q47 0 117 -8.5t129 -22.5v-203q-121 25 -209 25q-78 0 -127 -18.5t-76.5 -51.5t-37 -78t-9.5 -98v-80h639v-862h123v-209h-526v209h117v653h-353v-653h129v-209h-526v209h111v653h-136z" />
<glyph unicode="&#xfb02;" horiz-adv-x="1366" d="M61 862v209h136q0 119 16 217t66.5 169t141.5 110t241 39q49 0 111.5 -8.5t105.5 -22.5h280v-1366h111v-209h-514v209h116v1169q-66 18 -139 19q-78 0 -127 -18.5t-76.5 -51.5t-37 -78t-9.5 -98v-80h226v-209h-226v-653h129v-209h-526v209h111v653h-136z" />
<glyph horiz-adv-x="2048" />
<glyph horiz-adv-x="2048" />
<glyph unicode="&#xd;" />
<glyph unicode=" " />
<glyph unicode="!" d="M111 150q0 92 55 138t137 46t137.5 -46t55.5 -138q0 -78 -50.5 -131.5t-142.5 -53.5t-142 53.5t-50 131.5zM141 1575h324l-25 -1116h-274z" />
<glyph unicode="&#x22;" horiz-adv-x="681" d="M25 1479q0 51 34.5 89t94.5 38q59 0 94 -38t35 -89q0 -23 -2 -66t-5.5 -97t-8.5 -113.5t-9 -114t-7 -98.5t-5 -68q-4 -63 -28.5 -85t-63.5 -22t-63.5 21.5t-29.5 85.5q-2 23 -5 67.5t-7 99t-9 114t-8 113.5t-5 97t-2 66zM399 1479q0 51 35 89t94 38t94 -38t35 -89 q0 -23 -2 -66t-5 -97t-8 -113.5t-9 -114t-7 -98.5t-5 -68q-4 -63 -29 -85t-64 -22t-63.5 21.5t-28.5 85.5q-2 23 -5 67.5t-7 99t-9 114t-8.5 113.5t-5.5 97t-2 66z" />
<glyph unicode="#" horiz-adv-x="1212" d="M100 416v176h201l33 250h-174v176h198l56 416h184l-55 -416h209l55 416h184l-55 -416h176v-176h-201l-32 -250h174v-176h-199l-55 -416h-185l56 416h-209l-58 -416h-184l57 416h-176zM483 592h209l35 250h-209z" />
<glyph unicode="$" horiz-adv-x="1212" d="M35 1020q0 193 125 310.5t342 137.5v275h196v-275q104 0 202.5 -17t195.5 -46v-350h-246v162q-33 12 -74 21t-78 9v-375q104 -16 192.5 -42.5t152 -75.5t99.5 -124t36 -188q0 -123 -48.5 -211t-120 -144t-155.5 -83t-156 -29v-274h-196v274q-137 2 -262 20.5t-199 45.5 v385h287v-186q41 -10 82 -18.5t92 -12.5v401q-111 14 -197 43t-146.5 77t-92 120t-31.5 170zM322 1061q0 -39 15 -66.5t40.5 -46t57.5 -29t67 -16.5v344q-90 -16 -135 -66.5t-45 -119.5zM698 209q41 2 79 18.5t66.5 43t46 61.5t17.5 78q0 61 -46 108t-163 60v-369z" />
<glyph unicode="%" horiz-adv-x="1669" d="M57 1137q0 80 29 141t76 104t110.5 64.5t135.5 21.5q92 0 157.5 -29.5t105.5 -75.5t58.5 -103.5t18.5 -114.5q0 -82 -29 -145.5t-76 -106.5t-111.5 -64.5t-134.5 -21.5q-172 0 -256 88t-84 242zM266 1130q0 -63 30 -111t103 -48q41 0 68 16.5t43 41t22.5 55t6.5 59.5 q0 66 -31 114t-102 48q-78 0 -109 -52.5t-31 -122.5zM322 -29l862 1581l164 -90l-863 -1581zM922 295q0 80 28.5 141.5t75.5 104.5t110.5 64.5t135.5 21.5q92 0 157.5 -30t105.5 -76t58.5 -103.5t18.5 -114.5q0 -82 -29 -145.5t-76 -106.5t-111.5 -64.5t-133.5 -21.5 q-172 0 -256 88t-84 242zM1130 289q0 -63 30 -111.5t104 -48.5q41 0 67.5 16.5t43 41t22.5 55t6 59.5q0 66 -31 114t-102 48q-78 0 -109 -52.5t-31 -121.5z" />
<glyph unicode="&#x26;" horiz-adv-x="1517" d="M96 389q0 145 79 240.5t206 169.5q-49 53 -82 95t-53.5 80t-28.5 73.5t-8 74.5q0 70 29.5 131.5t84 107.5t131 71.5t169.5 25.5q94 0 162.5 -24.5t113.5 -67.5t67.5 -100.5t22.5 -120.5q0 -92 -59.5 -182.5t-208.5 -180.5l321 -336q33 45 55.5 116t22.5 140h-127v197h459 v-197h-111q-6 -123 -42.5 -222t-106.5 -185q35 -41 79 -63.5t103 -22.5q16 0 36 2t36 4v-211q-27 0 -54.5 -2t-54.5 -2q-59 0 -102 4t-76 17.5t-61.5 36t-59.5 59.5q-49 -43 -97 -72t-99 -46t-108.5 -25.5t-127.5 -8.5q-113 0 -206 31t-160.5 86t-105.5 133t-38 174z M367 416q0 -39 17 -79t53 -74t92.5 -55.5t134.5 -21.5q53 0 108 17.5t115 68.5l-361 375q-76 -41 -117.5 -101.5t-41.5 -129.5zM455 1122q0 -43 32.5 -92t92.5 -98q29 12 59.5 30.5t57 44t43 57.5t16.5 69q0 70 -45 99.5t-103 29.5q-29 0 -55.5 -7.5t-49 -25t-35.5 -44 t-13 -63.5z" />
<glyph unicode="'" horiz-adv-x="454" d="M98 1479q0 51 35 89t94 38t94 -38t35 -89q0 -23 -2 -66t-5 -97t-8 -113.5t-9 -114t-7 -98.5t-6 -68q-4 -63 -28.5 -85t-63.5 -22t-63.5 21.5t-28.5 85.5q-2 23 -5 67.5t-7 99t-9 114t-8.5 113.5t-5.5 97t-2 66z" />
<glyph unicode="(" d="M68 502q0 150 22.5 291t71.5 279t124.5 275.5t184.5 280.5l195 -121q-154 -236 -226.5 -492.5t-72.5 -525.5q0 -111 12 -220t44 -224t85 -236.5t135 -257.5l-209 -118q-104 150 -175 289t-113 270t-60 257t-18 253z" />
<glyph unicode=")" d="M-59 -446q154 236 226.5 492.5t72.5 524.5q0 111 -12.5 220.5t-44 224t-85 236.5t-135.5 257l209 119q104 -152 175 -290t113 -269t60.5 -258t18.5 -252q0 -152 -22.5 -292t-72 -278.5t-126 -275.5t-183.5 -280z" />
<glyph unicode="*" horiz-adv-x="757" d="M59 1337l93 164l176 -164l4 4l-47 234h188l-47 -234l4 -4l176 164l92 -164l-225 -73v-4l223 -76l-94 -162l-172 162l-4 -4l45 -236h-184l45 236l-4 4l-172 -162l-95 162l224 76v4z" />
<glyph unicode="+" horiz-adv-x="1228" d="M96 408v221h408v407h221v-407h408v-221h-408v-408h-221v408h-408z" />
<glyph unicode="," d="M45 -330q100 80 132 140.5t32 113.5q0 39 -17.5 67.5t-39 54.5t-39 53.5t-17.5 66.5q0 78 50.5 123t123.5 45q55 0 98.5 -24.5t71 -64.5t42 -91.5t14.5 -102.5q0 -158 -81 -281.5t-237 -226.5z" />
<glyph unicode="-" horiz-adv-x="872" d="M137 487v246h598v-246h-598z" />
<glyph unicode="." d="M111 150q0 92 55 138t137 46t137.5 -46t55.5 -138q0 -78 -50.5 -131.5t-142.5 -53.5t-142 53.5t-50 131.5z" />
<glyph unicode="/" horiz-adv-x="720" d="M-45 -98l604 1704l207 -74l-604 -1704z" />
<glyph unicode="0" horiz-adv-x="1212" d="M59 678q0 223 48.5 374.5t128 244t183 132t214.5 39.5q117 0 213 -47t163.5 -140t105.5 -234.5t38 -329.5q0 -190 -46 -331.5t-124 -235t-180.5 -139.5t-214.5 -46q-104 0 -199.5 34t-169.5 116t-117 219t-43 344zM371 702q0 -141 14 -237t44 -155.5t75 -85t104 -25.5 q43 0 85 22.5t75 80.5t53.5 158.5t20.5 256.5q0 164 -20.5 265t-53.5 157.5t-74 76t-82 19.5q-47 0 -90 -24.5t-76.5 -85t-54 -164t-20.5 -259.5z" />
<glyph unicode="1" horiz-adv-x="1212" d="M84 1128l516 306h219v-1225h281v-209h-856v209h276v954q-18 -16 -34.5 -29.5t-36.5 -27.5l-248 -166z" />
<glyph unicode="2" horiz-adv-x="1212" d="M49 0v197q39 27 108.5 80t152.5 122.5t168 151.5t154.5 167t114 167t44.5 153q0 55 -19.5 93t-49.5 60.5t-65.5 33t-66.5 10.5q-111 0 -173.5 -69.5t-72.5 -172.5h-287q0 61 24.5 143.5t86 156t167 124.5t267.5 51q82 0 169 -21.5t157.5 -70.5t116 -129t45.5 -194 q0 -109 -50.5 -213.5t-136.5 -207t-201.5 -203.5t-244.5 -204v-4q35 4 73.5 8t73.5 4h529v-233h-1084z" />
<glyph unicode="3" horiz-adv-x="1212" d="M45 1038q0 72 32 148t97.5 139.5t165.5 103t238 39.5q102 0 187 -25.5t146.5 -72.5t96 -114.5t34.5 -149.5q0 -63 -21.5 -121.5t-60 -104.5t-93 -78t-119.5 -40v-4q70 -2 133 -23.5t112 -64.5t78 -107.5t29 -150.5q0 -57 -21.5 -134t-86 -147t-184.5 -118t-316 -48 q-147 0 -252 22.5t-191 63.5v277q109 -59 217.5 -88t202.5 -29q162 0 247 55.5t85 159.5q0 68 -38 110t-98.5 64.5t-136 29.5t-149.5 7v197q100 0 169.5 22.5t113 57t62.5 79.5t19 90q0 74 -51 119t-133 45q-45 0 -86 -15t-72.5 -43t-50 -67t-18.5 -84h-287z" />
<glyph unicode="4" horiz-adv-x="1212" d="M31 385v221l571 828h371v-828h250v-221h-250v-176h141v-209h-567v209h139v176h-655zM303 600q39 6 80 6h303v565h-4z" />
<glyph unicode="5" horiz-adv-x="1212" d="M117 29v233q25 -12 67.5 -23.5t94 -20.5t104.5 -14t100 -5q86 0 146.5 20.5t97.5 54t54.5 78.5t17.5 92q0 74 -35 125.5t-112 83t-199.5 46t-298.5 14.5v721h882v-209h-596v-291q98 0 213 -17.5t214.5 -66.5t165 -137t65.5 -230q0 -119 -40 -214t-118 -162.5 t-190.5 -104.5t-257.5 -37q-104 0 -201.5 18.5t-173.5 45.5z" />
<glyph unicode="6" horiz-adv-x="1212" d="M90 645q0 180 44 330.5t135 260.5t227.5 171t320.5 61q80 0 148.5 -7t146.5 -34l-18 -223q-68 25 -135.5 40.5t-124.5 15.5q-121 0 -202 -43t-133.5 -111t-79 -151t-36.5 -162l4 -5q127 139 334 140q82 0 158.5 -28t137 -84t97.5 -140t37 -195q0 -88 -27.5 -180t-87 -167 t-156 -122t-231.5 -47q-119 0 -221 41t-177 125t-118 212t-43 302zM389 594q0 -111 21.5 -186.5t57.5 -121.5t83 -66.5t100 -20.5q74 0 119 29.5t69.5 70.5t33 86t8.5 74q0 59 -19.5 105t-53.5 78t-78 48.5t-93 16.5q-70 0 -135.5 -31t-112.5 -82z" />
<glyph unicode="7" horiz-adv-x="1212" d="M102 1200v234h1010v-181l-504 -1009q-61 -125 -145 -244h-324q45 66 85 129.5t75 128.5l436 823q16 33 34.5 60.5t47.5 58.5h-715z" />
<glyph unicode="8" horiz-adv-x="1212" d="M49 342q0 137 89 235.5t253 147.5v4q-154 45 -220.5 141t-66.5 215q0 80 35 151t101.5 122t165 80.5t225.5 29.5q139 0 233 -33.5t151.5 -87t82 -117t24.5 -124.5q0 -72 -19.5 -127t-56 -97t-91 -75t-121.5 -59v-5q147 -39 238 -134t91 -236q0 -117 -47 -195t-127 -126 t-183.5 -67.5t-215.5 -19.5q-94 0 -190.5 18.5t-174.5 61.5t-127 115.5t-49 181.5zM348 377q0 -37 16.5 -71t48 -60.5t80 -43t113.5 -16.5q129 0 200 57.5t71 135.5q0 37 -13.5 67.5t-45.5 59.5t-86 55.5t-136 54.5q-248 -90 -248 -239zM391 1073q0 -72 57.5 -122t167.5 -97 q61 31 102.5 57.5t68 53t38 55t11.5 63.5q0 84 -61.5 124t-162.5 40q-98 0 -159.5 -48t-61.5 -126z" />
<glyph unicode="9" horiz-adv-x="1212" d="M61 952q0 88 28 180.5t87.5 167t155.5 121.5t231 47q119 0 221.5 -41t177 -124.5t117.5 -211.5t43 -303q0 -180 -44 -330.5t-135 -260t-227 -171t-321 -61.5q-80 0 -148.5 7.5t-146.5 33.5l19 223q68 -25 135.5 -40t124.5 -15q119 0 201 43t134 110.5t78.5 150.5 t36.5 163l-4 4q-127 -139 -333 -139q-82 0 -159 27.5t-137.5 84t-97.5 140.5t-37 194zM332 975q0 -59 19.5 -105.5t53 -78t77.5 -48t93 -16.5q70 0 135.5 30.5t112.5 82.5q0 111 -21.5 186.5t-57 121.5t-83 66.5t-100.5 20.5q-74 0 -119 -29.5t-69.5 -71.5t-32.5 -86t-8 -73 z" />
<glyph unicode=":" d="M111 150q0 92 55 138t137 46t137.5 -46t55.5 -138q0 -78 -50.5 -131.5t-142.5 -53.5t-142 53.5t-50 131.5zM111 911q0 92 55 138.5t137 46.5t137.5 -46t55.5 -139q0 -78 -50.5 -131t-142.5 -53t-142 53t-50 131z" />
<glyph unicode=";" d="M45 -330q100 80 132 140.5t32 113.5q0 39 -17.5 67.5t-39 54.5t-39 53.5t-17.5 66.5q0 78 50.5 123t123.5 45q55 0 98.5 -24.5t71 -64.5t42 -91.5t14.5 -102.5q0 -158 -81 -281.5t-237 -226.5zM111 911q0 92 55 138.5t137 46.5t137.5 -46t55.5 -139q0 -78 -50.5 -131 t-142.5 -53t-142 53t-50 131z" />
<glyph unicode="&#x3c;" horiz-adv-x="1228" d="M96 424v188l1037 441v-222l-791 -313l791 -313v-221z" />
<glyph unicode="=" horiz-adv-x="1228" d="M96 211v221h1037v-221h-1037zM96 604v221h1037v-221h-1037z" />
<glyph unicode="&#x3e;" horiz-adv-x="1228" d="M96 -16v221l791 313l-791 313v222l1037 -441v-188z" />
<glyph unicode="?" horiz-adv-x="985" d="M121 1561q86 20 170 32.5t158 12.5q154 0 252 -40t154 -98.5t77.5 -125t21.5 -117.5q0 -106 -37.5 -180t-95 -126.5t-123 -90t-123 -70.5t-95.5 -69t-38 -83q0 -23 14.5 -53.5t30.5 -52.5l-258 -76q-33 45 -53 97t-20 106q0 74 35.5 124t90 89t118 70.5t117.5 68.5t90 86 t36 121q0 49 -20.5 84t-56.5 58.5t-82 33.5t-97 10q-59 0 -125.5 -10t-130.5 -29zM139 150q0 92 55.5 138t137.5 46t137 -46t55 -138q0 -78 -50 -131.5t-142 -53.5t-142.5 53.5t-50.5 131.5z" />
<glyph unicode="@" horiz-adv-x="1638" d="M78 719q0 156 56 291t157.5 234t244 156.5t316.5 57.5q152 0 281 -44t224 -125t149.5 -193.5t54.5 -247.5q0 -150 -52.5 -258.5t-129 -178t-165 -102.5t-159.5 -33q-76 0 -109 34t-35 85h-4q-41 -47 -103.5 -83t-141.5 -36q-57 0 -107.5 23t-88.5 66t-59.5 102t-21.5 133 q0 106 37 203.5t98.5 172.5t142 119t166.5 44q152 0 232 -156l37 117h145l-139 -500q-16 -59 -24.5 -91t-8.5 -46q0 -23 13.5 -34t54.5 -11q39 0 82 31.5t76.5 87t56 129t22.5 157.5q0 104 -43 191.5t-114.5 150t-167 96t-199.5 33.5q-131 0 -239.5 -48t-186.5 -128 t-121 -185.5t-43 -221.5q0 -131 47 -236.5t126 -180.5t182.5 -115t218.5 -40q160 0 284.5 46t206.5 126h168q-39 -74 -101.5 -135t-145.5 -105t-186.5 -70t-225.5 -26q-160 0 -298.5 50.5t-240.5 146.5t-160.5 233.5t-58.5 313.5zM557 627q0 -92 40 -145.5t112 -53.5 q63 0 117.5 37t92 92t59 120t21.5 120q0 102 -43 146t-118 44q-61 0 -113.5 -33.5t-89.5 -86t-57.5 -117t-20.5 -123.5z" />
<glyph unicode="A" horiz-adv-x="1593" d="M29 0v209h114l504 1225h330l473 -1225h115v-209h-570v209h117l-92 274h-494l-102 -274h137v-209h-532zM610 705h334l-102 299q-16 47 -30.5 99t-23.5 109h-4q-12 -57 -28.5 -108t-34.5 -100z" />
<glyph unicode="B" horiz-adv-x="1327" d="M57 1225v209h551q76 0 135.5 -2t106.5 -9.5t86 -20.5t74 -36q57 -37 103 -106.5t46 -182.5q0 -86 -30.5 -147.5t-75.5 -100t-96.5 -57t-90.5 -18.5v-4q74 0 142.5 -22.5t121 -68t84 -111t31.5 -153.5q0 -72 -28.5 -141.5t-92 -126.5t-167 -92t-250.5 -35h-637v209h141 v1016h-154zM510 209h162q131 0 190.5 61.5t59.5 147.5q0 84 -61.5 140t-176.5 56h-174v-405zM510 848h139q92 0 157.5 49t65.5 147q0 92 -56 136.5t-163 44.5h-143v-377z" />
<glyph unicode="C" horiz-adv-x="1402" d="M70 707q0 145 47 281t143 240.5t242.5 167t345.5 62.5q137 0 253 -23.5t220 -60.5v-399h-258v229q-53 18 -100.5 25.5t-102.5 7.5q-129 0 -218 -43t-144.5 -114.5t-80 -164t-24.5 -190.5q0 -82 20.5 -172t75 -167t148.5 -127t240 -50q31 0 80 4t87 16l13 260h258 l-12 -442q-117 -41 -227.5 -56.5t-239.5 -15.5q-180 0 -322.5 51.5t-241 146.5t-150.5 230.5t-52 303.5z" />
<glyph unicode="D" horiz-adv-x="1554" d="M57 0v209h154v1016h-154v209h670q180 0 322.5 -44t242 -130t151.5 -215.5t52 -296.5q0 -166 -52 -304.5t-148.5 -236.5t-236.5 -152.5t-315 -54.5h-686zM510 209h174q90 0 178 27.5t156.5 90t110.5 164t42 248.5q0 137 -38.5 230.5t-106.5 150t-157 81t-189 24.5h-170 v-1016z" />
<glyph unicode="E" horiz-adv-x="1214" d="M57 1225v209h1049l12 -422h-246l-12 213h-350v-377h360v-221h-360v-418h356l17 242h245l-16 -451h-1030v209h129v1016h-154z" />
<glyph unicode="F" horiz-adv-x="1175" d="M70 1225v209h1036l12 -422h-246l-12 213h-338v-398h396v-221h-396v-397h162v-209h-590v209h129v1016h-153z" />
<glyph unicode="G" horiz-adv-x="1478" d="M70 707q0 150 47 285.5t144 239t245.5 165t351.5 61.5q88 0 157.5 -8t128 -20.5t105.5 -28t90 -29.5v-399h-258v235q-53 16 -107 22.5t-95 6.5q-135 0 -228.5 -43t-151 -114.5t-82 -164t-24.5 -190.5q0 -82 20.5 -172t75 -167t148.5 -127t240 -50q47 0 80.5 3t74.5 9v266 h-147v222h565v-222h-131v-444q-127 -35 -240.5 -51.5t-242.5 -16.5q-180 0 -322.5 51.5t-241 146.5t-150.5 230.5t-52 303.5z" />
<glyph unicode="H" horiz-adv-x="1593" d="M74 0v209h129v1016h-129v209h557v-209h-129v-398h590v398h-129v209h557v-209h-129v-1016h129v-209h-557v209h129v397h-590v-397h129v-209h-557z" />
<glyph unicode="I" horiz-adv-x="720" d="M82 0v209h129v1016h-129v209h557v-209h-129v-1016h129v-209h-557z" />
<glyph unicode="J" horiz-adv-x="681" d="M-104 -197q82 37 142 88.5t98 128t56.5 184t18.5 255.5v766h-129v209h557v-209h-129v-803q0 -168 -29.5 -293t-91 -222t-158 -171t-229.5 -139z" />
<glyph unicode="K" horiz-adv-x="1478" d="M82 0v209h129v1016h-129v209h557v-209h-129v-457l385 362q41 39 69.5 59.5t55.5 31.5v4h-152v209h582v-209h-113l-528 -473l553 -543h115v-209h-631v209h168v4q-23 16 -50.5 35.5t-48.5 38.5l-405 395v-473h129v-209h-557z" />
<glyph unicode="L" horiz-adv-x="1175" d="M94 0v209h129v1016h-129v209h557v-209h-129v-1016h352l17 256h248l-21 -465h-1024z" />
<glyph unicode="M" horiz-adv-x="1972" d="M45 1225v209h526l369 -953q16 -41 33.5 -87t23.5 -107h4q2 31 7.5 58.5t14.5 56t21.5 63.5t28.5 78l334 891h520v-209h-149v-1016h143v-209h-551v209h121v825h-4q-2 -31 -17.5 -82t-37.5 -106l-324 -846h-287l-332 860q-23 55 -39 106.5t-18 82.5h-4v-840h150v-209h-508 v209h125v1016h-150z" />
<glyph unicode="N" horiz-adv-x="1630" d="M29 1225v209h415l605 -760q47 -59 76.5 -105.5t43.5 -87.5h5v744h-132v209h519v-209h-142v-1225h-221l-682 856q-27 33 -45 63.5t-22 47.5h-5v-758h140v-209h-506v209h133v1016h-182z" />
<glyph unicode="O" horiz-adv-x="1556" d="M70 717q0 147 47 281.5t137 236.5t222 162.5t302 60.5q182 0 316.5 -56t221.5 -155.5t129 -236t42 -293.5q0 -152 -40 -286t-126 -235.5t-220 -161t-323 -59.5q-188 0 -322 59.5t-220 161t-126 235.5t-40 286zM393 717q0 -104 20.5 -196.5t66.5 -161t119 -109.5t179 -41 t179 41t119 109.5t66.5 160.5t20.5 197q0 104 -22.5 196.5t-68.5 161t-119.5 109.5t-174.5 41q-102 0 -175 -41t-119 -109.5t-68.5 -161t-22.5 -196.5z" />
<glyph unicode="P" horiz-adv-x="1251" d="M82 0v209h141v1016h-141v209h592q524 0 524 -424q0 -100 -34 -184.5t-96 -144.5t-150.5 -94t-194.5 -34h-201v-344h142v-209h-582zM522 762h162q113 0 170 62.5t57 172.5q0 111 -61.5 169.5t-169.5 58.5h-158v-463z" />
<glyph unicode="Q" horiz-adv-x="1556" d="M70 717q0 147 47 281.5t137 236.5t222 162.5t302 60.5q182 0 316.5 -56t221.5 -155.5t129 -236t42 -293.5q0 -111 -21.5 -214.5t-67.5 -191.5t-116 -156.5t-168 -111.5v-4q63 -14 123.5 -44t122 -60.5t124 -53t130.5 -22.5q16 0 35.5 2t36.5 6v-197q-35 -10 -80 -15 t-66 -5q-78 0 -161 24.5t-164.5 60.5t-159.5 78t-145.5 77.5t-120 60t-82.5 24.5q-129 0 -244 49.5t-203 144.5t-139 233.5t-51 314.5zM393 717q0 -104 20.5 -196.5t66.5 -161t119 -109.5t179 -41t179 41t119 109.5t66.5 160.5t20.5 197q0 104 -22.5 196.5t-68.5 161 t-119.5 109.5t-174.5 41q-102 0 -175 -41t-119 -109.5t-68.5 -161t-22.5 -196.5z" />
<glyph unicode="R" horiz-adv-x="1327" d="M70 1225v209h632q63 0 106.5 -3.5t76.5 -9.5t60.5 -16t58.5 -25q98 -47 145 -138t47 -202q0 -80 -30.5 -146.5t-79 -115.5t-108.5 -77.5t-120 -30.5v-4q53 -4 92 -34t92 -118l129 -215q33 -55 61 -72.5t56 -17.5h53v-209h-229q-29 0 -54.5 7t-53 29.5t-59.5 64.5t-73 114 l-174 299q-43 72 -118 72h-70v-377h129v-209h-557v209h129v1016h-141zM510 807h154q121 0 177 52t56 157q0 104 -57.5 156.5t-194.5 52.5h-135v-418z" />
<glyph unicode="S" horiz-adv-x="1290" d="M92 55v379h299v-188q57 -23 117.5 -30t124.5 -7q133 0 193.5 55t60.5 137q0 27 -9.5 51.5t-35 46t-71.5 41t-118 38.5l-157 40q-111 29 -187 66t-122 86t-66.5 112.5t-20.5 147.5q0 86 32 163t99.5 136.5t175 94t259.5 34.5q131 0 254.5 -20.5t216.5 -55.5v-342h-271v174 q-41 14 -90 24.5t-102 10.5q-74 0 -124 -17.5t-81 -44t-44 -58t-13 -62.5q0 -78 49 -109.5t121 -48.5l172 -43q80 -20 158.5 -45.5t142 -72t103.5 -119t40 -183.5q0 -102 -35 -188t-107.5 -149.5t-184 -98.5t-265.5 -35q-119 0 -243.5 16.5t-270.5 63.5z" />
<glyph unicode="T" horiz-adv-x="1400" d="M35 1028l12 406h1307l12 -406h-246l-12 197h-258v-1016h129v-209h-557v209h129v1016h-258l-12 -197h-246z" />
<glyph unicode="U" horiz-adv-x="1554" d="M57 1225v209h557v-209h-129v-674q0 -78 13.5 -141.5t46.5 -108.5t89 -68.5t142 -23.5q72 0 131.5 14.5t101.5 53t65.5 105.5t23.5 169v674h-158v209h557v-209h-129v-656q0 -168 -36 -281.5t-110.5 -183t-189 -99.5t-272.5 -30q-176 0 -288 38t-175.5 106.5t-87 165 t-23.5 215.5v725h-129z" />
<glyph unicode="V" horiz-adv-x="1554" d="M16 1225v209h582v-209h-121l281 -819q14 -41 25.5 -84t17.5 -89h4q6 45 17.5 88.5t25.5 84.5l280 819h-147v209h557v-209h-111l-481 -1225h-334l-481 1225h-115z" />
<glyph unicode="W" horiz-adv-x="2314" d="M4 1225v209h582v-209h-121l280 -819q14 -41 25.5 -84t17.5 -89h5q6 45 17 88.5t26 84.5l215 618l-74 201h-135v209h569v-209h-129l252 -819q12 -41 23.5 -84t17.5 -89h4q6 45 17.5 88.5t25.5 84.5l281 819h-150v209h557v-209h-115l-479 -1225h-317l-228 672h-4l-245 -672 h-324l-479 1225h-115z" />
<glyph unicode="X" horiz-adv-x="1478" d="M27 0v209h118l428 493l-399 523h-119v209h607v-209h-138v-4q23 -10 41.5 -28.5t34.5 -39.5l172 -223l209 237q14 16 28.5 29.5t37.5 24.5v4h-136v209h496v-209h-104l-396 -471l422 -545h123v-209h-606v209h119v4q-23 16 -39.5 32.5t-32.5 39.5l-180 237l-203 -239 q-16 -20 -36.5 -40t-41.5 -30v-4h127v-209h-532z" />
<glyph unicode="Y" horiz-adv-x="1517" d="M20 1225v209h570v-209h-115q23 -23 41.5 -45.5t34.5 -46.5l237 -349l256 351q16 23 35 45t41 45h-143v209h520v-209h-113l-475 -654v-362h129v-209h-555v209h127v360l-477 656h-113z" />
<glyph unicode="Z" horiz-adv-x="1327" d="M76 0v199l719 923q51 68 98 99v4h-492l-12 -191h-258l12 400h1096v-209l-704 -914q-27 -35 -50.5 -58.5t-48.5 -39.5v-4h543l12 190h260l-16 -399h-1159z" />
<glyph unicode="[" d="M147 -514v2089h449v-209h-162v-1671h172v-209h-459z" />
<glyph unicode="\" horiz-adv-x="720" d="M-45 1532l207 74l604 -1704l-207 -74z" />
<glyph unicode="]" d="M0 1366v209h459v-2089h-449v209h162v1671h-172z" />
<glyph unicode="^" horiz-adv-x="1228" d="M127 686l365 748h245l365 -748h-221l-267 526l-266 -526h-221z" />
<glyph unicode="_" horiz-adv-x="1024" d="M0 -154h1024v-102h-1024v102z" />
<glyph unicode="`" horiz-adv-x="679" d="M-63 1542l145 144l444 -359l-153 -123z" />
<glyph unicode="a" horiz-adv-x="1214" d="M86 287q0 57 17.5 105t47 85t68.5 62.5t82 42.5q82 29 193.5 39t269.5 10v51q0 121 -51 163t-152 42q-31 0 -86 -8.5t-92 -22.5v-143h-246v272q27 14 70 33.5t99 36t122 29t137 12.5q106 0 193.5 -20.5t149 -69t94 -127t32.5 -195.5q0 -133 -3 -246.5t-7 -228.5h121v-209 h-361v66q0 53 3.5 84.5t11.5 62.5h-4q-53 -123 -134 -180.5t-217 -57.5q-90 0 -157.5 25t-112.5 68t-66.5 99t-21.5 120zM373 313q0 -47 35.5 -88t121.5 -41q43 0 84 14.5t74 47.5t52.5 84t19.5 125h-80q-88 0 -146.5 -9.5t-94.5 -27t-51 -44t-15 -61.5z" />
<glyph unicode="b" horiz-adv-x="1251" d="M-43 1366v209h451v-420q0 -66 -6.5 -137.5t-14.5 -149.5h4q47 111 137 169.5t226 58.5q88 0 163.5 -32t131 -93.5t87 -153.5t31.5 -211q0 -111 -29.5 -222.5t-98 -202.5t-183.5 -148.5t-287 -57.5q-70 0 -138.5 8.5t-128.5 20.5t-107.5 28.5t-73.5 33.5v1300h-164z M401 248q29 -16 82.5 -27.5t100.5 -11.5q78 0 134 29.5t92 81t53.5 117t17.5 136.5q0 55 -11.5 107.5t-38 92.5t-70.5 64.5t-112 24.5q-72 0 -119 -23.5t-75.5 -61.5t-41 -87t-12.5 -98v-344z" />
<glyph unicode="c" horiz-adv-x="1024" d="M63 535q0 129 40 233t114 177t177.5 112t232.5 39q98 0 181 -14.5t157 -37.5v-313h-246v143q-29 6 -50.5 9.5t-47.5 3.5q-72 0 -123.5 -30t-84 -76t-48 -103t-15.5 -113q0 -68 18.5 -132t59.5 -114.5t105.5 -80t156.5 -29.5q139 0 268 59l-16 -241q-39 -14 -73.5 -24.5 t-71.5 -16.5t-80 -8.5t-96 -2.5q-137 0 -241 44t-174.5 120t-106.5 177.5t-36 218.5z" />
<glyph unicode="d" horiz-adv-x="1327" d="M63 465q0 111 30 222.5t98.5 202.5t183 148.5t287.5 57.5q37 0 85 -6.5t91 -18.5v295h-164v209h450v-1366h123v-209h-403q0 59 6 107.5t18 99.5h-4q-49 -113 -139 -172.5t-225 -59.5q-88 0 -167 32t-139.5 93.5t-95.5 152.5t-35 212zM362 532q0 -63 14.5 -119.5 t43.5 -99.5t68.5 -67.5t93.5 -24.5q57 0 102 23.5t78 64.5t50 95.5t17 115.5v303q-29 16 -82 27.5t-100 11.5q-78 0 -132 -28.5t-88 -74.5t-49.5 -105.5t-15.5 -121.5z" />
<glyph unicode="e" horiz-adv-x="1175" d="M63 530q0 125 37 229.5t106.5 179.5t169 116t226.5 41q137 0 235.5 -49.5t162 -133.5t92 -198.5t28.5 -243.5h-745q6 -129 97 -201.5t243 -72.5q102 0 179 17t167 56l-14 -227q-100 -37 -192.5 -52.5t-203.5 -15.5q-156 0 -266.5 45.5t-182 121t-105.5 177t-34 211.5z M373 668h436q0 111 -58.5 171t-158.5 60q-98 0 -153.5 -60.5t-65.5 -170.5z" />
<glyph unicode="f" horiz-adv-x="720" d="M33 862v209h147v115q0 211 115 315.5t358 104.5q41 0 89.5 -4.5t115.5 -18.5v-209q-35 12 -68.5 17.5t-66.5 5.5q-139 0 -197.5 -54.5t-58.5 -160.5v-111h225v-209h-225v-653h154v-209h-564v209h123v653h-147z" />
<glyph unicode="g" horiz-adv-x="1214" d="M47 -252q0 35 10.5 71t36 67.5t71.5 59t118 44.5v4q-70 16 -108 51t-38 109q0 39 17.5 69.5t47 52t66.5 36t76 20.5v4q-152 49 -210 143t-58 211q0 92 33.5 168t97 128t151.5 81t199 29q66 0 118 -7.5t107 -17.5h392v-197h-185q25 -31 47.5 -84t22.5 -122q0 -94 -37 -164 t-99.5 -115t-144.5 -67.5t-170 -22.5h-102q-27 0 -48.5 -16.5t-21.5 -40.5q0 -29 17.5 -41.5t58.5 -16.5l354 -39q139 -16 213 -79.5t74 -202.5q0 -59 -26.5 -129t-91 -130.5t-173 -101.5t-274.5 -41q-164 0 -268.5 27t-165 68t-84 92t-23.5 100zM317 -188q0 -76 79 -109 t210 -33q47 0 96.5 9.5t89 28t65.5 46t26 64.5q0 49 -35 63.5t-107 22.5l-305 33q-41 -14 -80 -46t-39 -79zM346 690q0 -86 59.5 -134t167.5 -48q68 0 113 16.5t73.5 44t41 62.5t12.5 69q0 86 -65.5 136.5t-163.5 50.5q-47 0 -90 -11.5t-76 -35t-52.5 -60.5t-19.5 -90z" />
<glyph unicode="h" horiz-adv-x="1402" d="M33 1366v209h444v-504q0 -55 -2 -108.5t-14 -112.5h4q41 106 135 176t236 70q190 0 280 -113t90 -305v-469h123v-209h-526v209h117v440q0 111 -52.5 156t-134.5 45q-66 0 -113 -21.5t-77.5 -60.5t-45 -90t-14.5 -113v-356h123v-209h-526v209h117v1157h-164z" />
<glyph unicode="i" horiz-adv-x="679" d="M57 862v209h426v-862h123v-209h-526v209h117v653h-140zM137 1427q0 80 51.5 129.5t141.5 49.5t141 -49.5t51 -129.5t-51 -129t-141 -49t-141.5 49t-51.5 129z" />
<glyph unicode="j" horiz-adv-x="681" d="M-156 -311q100 20 168 64t109 115t58.5 168t17.5 222v604h-140v209h426v-838q0 -195 -38.5 -335t-115.5 -233t-189.5 -142t-262.5 -62zM137 1427q0 80 51.5 129.5t141.5 49.5t141 -49.5t51 -129.5t-51 -129t-141 -49t-141.5 49t-51.5 129z" />
<glyph unicode="k" horiz-adv-x="1290" d="M51 1366v209h451v-961l286 220q10 8 20.5 14t22.5 10v4h-147v209h545v-209h-94l-334 -266l358 -387h119v-209h-569v209h112v4q-43 27 -90 76l-229 256v-336h98v-209h-502v209h117v1157h-164z" />
<glyph unicode="l" horiz-adv-x="643" d="M14 1366v209h451v-1366h123v-209h-527v209h117v1157h-164z" />
<glyph unicode="m" horiz-adv-x="2084" d="M59 862v209h420q0 -55 -2 -108.5t-14 -108.5h4q45 117 140 179.5t231 62.5q133 0 212.5 -60.5t102.5 -181.5h4q39 113 128 177.5t231 64.5q190 0 280 -113t90 -305v-469h123v-209h-514v209h104v440q0 111 -52 156t-134 45q-104 0 -165.5 -78t-61.5 -207v-356h123v-209 h-514v209h104v440q0 111 -52 156t-134 45q-57 0 -99.5 -21.5t-71 -60.5t-43 -90t-14.5 -113v-356h123v-209h-526v209h117v653h-140z" />
<glyph unicode="n" horiz-adv-x="1402" d="M57 862v209h420q0 -55 -2 -108.5t-14 -112.5h4q41 106 135 176t236 70q190 0 280 -113t90 -305v-469h123v-209h-526v209h117v440q0 111 -52.5 156t-134.5 45q-66 0 -113 -21.5t-77.5 -60.5t-45 -90t-14.5 -113v-356h123v-209h-514v209h105v653h-140z" />
<glyph unicode="o" horiz-adv-x="1253" d="M63 524q0 115 39 218.5t112 182.5t177.5 125t235.5 46q272 0 417.5 -145.5t145.5 -426.5q0 -121 -40 -221t-113.5 -173t-177 -114t-232.5 -41t-232.5 35t-177.5 103.5t-114 171t-40 239.5zM375 518q0 -145 59.5 -227t192.5 -82t192.5 82t59.5 227q0 174 -59.5 259 t-192.5 85q-66 0 -114 -26.5t-79 -72.5t-45 -108.5t-14 -136.5z" />
<glyph unicode="p" horiz-adv-x="1327" d="M16 862v209h447q1 -13 1 -25q0 -38 -5 -76q-6 -50 -15 -102h5q49 111 139 169.5t225 58.5q88 0 164 -32t131 -93.5t87 -153.5t32 -211q0 -111 -30 -222.5t-98.5 -202.5t-183 -148.5t-286.5 -57.5q-35 0 -81 5.5t-81 13.5v-299h123v-209h-527v209h117v1167h-164zM461 238 q29 -10 82 -19.5t100 -9.5q78 0 134.5 29.5t92 81t53 117t17.5 136.5q0 55 -11 107.5t-38 92.5t-71 64.5t-111 24.5q-72 0 -119 -23.5t-76 -61.5t-41 -87t-12 -98v-354z" />
<glyph unicode="q" horiz-adv-x="1327" d="M88 465q0 111 33 222.5t107.5 202.5t193.5 148.5t291 57.5q59 0 119.5 -8.5t116 -20.5t102.5 -28.5t84 -32.5v-1311h127v-209h-529v209h115v194q0 82 5 166t17 148h-4q-47 -115 -124.5 -171.5t-219.5 -56.5q-92 0 -172 33t-138 96.5t-91 153.5t-33 207zM387 532 q0 -63 14.5 -119.5t43 -99.5t68.5 -67.5t93 -24.5q57 0 102.5 23.5t78 64.5t50 95.5t17.5 115.5v303q-29 16 -82 27.5t-100 11.5q-78 0 -132.5 -28.5t-88 -74.5t-49 -105.5t-15.5 -121.5z" />
<glyph unicode="r" horiz-adv-x="872" d="M76 862v209h416q0 -55 -4.5 -112.5t-14.5 -133.5h4q63 270 307 271q27 0 49.5 -4.5t45.5 -8.5l-19 -256q-51 10 -92 11q-117 0 -191.5 -75t-74.5 -208v-346h135v-209h-539v209h117v653h-139z" />
<glyph unicode="s" horiz-adv-x="1099" d="M80 745q0 98 42 166t109.5 109t151.5 58.5t168 17.5q86 0 191.5 -15.5t224.5 -56.5v-264h-258v108q-86 31 -166 31q-98 0 -145.5 -34t-47.5 -79q0 -39 17.5 -56t78.5 -28l226 -32q184 -27 266 -102.5t82 -221.5q0 -72 -26.5 -138.5t-87 -118.5t-157 -83t-235.5 -31 q-49 0 -104.5 5.5t-111.5 13.5t-109.5 20.5t-96.5 28.5v301h258v-125q35 -12 89.5 -23.5t101.5 -11.5q23 0 57.5 5.5t68 18.5t58.5 38.5t25 68.5q0 45 -34 70t-128 39l-242 37q-141 23 -203.5 95.5t-62.5 188.5z" />
<glyph unicode="t" horiz-adv-x="757" d="M51 862v209h146v221l286 17v-238h287v-209h-287v-477q0 -57 8.5 -93t27 -57.5t48 -29.5t74.5 -8q29 0 63.5 8t75.5 24l-10 -202q-80 -29 -138.5 -40.5t-111.5 -11.5q-160 0 -241.5 73t-81.5 214v600h-146z" />
<glyph unicode="u" horiz-adv-x="1366" d="M47 862v209h430v-600q0 -57 5 -105.5t24.5 -83t56.5 -54t103 -19.5q92 0 157.5 69.5t65.5 198.5v385h-135v209h422v-862h124v-209h-401v57.5t3 60t8 57.5t16 46h-4q-51 -129 -141.5 -187.5t-229.5 -58.5q-182 0 -271.5 102.5t-89.5 272.5v512h-143z" />
<glyph unicode="v" horiz-adv-x="1214" d="M-16 862v209h528v-209h-100l194 -528q8 -20 12.5 -40t8.5 -48h4q4 29 8 48t12 40l189 528h-121v209h512v-209h-98l-367 -862h-311l-373 862h-98z" />
<glyph unicode="w" horiz-adv-x="1896" d="M4 862v209h512v-209h-100q14 -23 26.5 -53.5t24.5 -65.5l131 -362q10 -31 18.5 -59.5t14.5 -63.5h4q8 33 20.5 62.5t26.5 62.5l160 356l-49 123h-115v209h520v-209h-111q14 -23 26.5 -53.5t25.5 -65.5l133 -362q14 -37 20 -62.5t13 -60.5h4q6 35 12 60.5t20 62.5l129 362 q12 35 24.5 66t27.5 53h-142v209h512v-209h-98l-371 -862h-299l-143 371q-8 20 -14 41.5t-11 50.5h-4q-8 -53 -26 -92l-162 -371h-299l-361 862h-100z" />
<glyph unicode="x" horiz-adv-x="1327" d="M57 0v209h109l342 319l-315 334h-117v209h565v-209h-113v-4q16 -10 33 -23.5t31 -27.5l102 -109l117 109q14 14 30.5 27.5t32.5 23.5v4h-112v209h475v-209h-109l-309 -293l338 -360h113v-209h-563v209h116v4q-23 8 -45 31l-143 151l-164 -151q-23 -23 -45 -31v-4h125 v-209h-494z" />
<glyph unicode="y" horiz-adv-x="1251" d="M20 862v209h533v-209h-111q12 -16 21.5 -34.5t17.5 -39.5l135 -364q16 -43 29.5 -99.5t20.5 -103.5h4q6 47 19 103.5t30 99.5l127 364q8 20 17 39t22 35h-133v209h479v-209h-98l-330 -885q-57 -154 -111.5 -254t-117 -158.5t-138.5 -81t-176 -22.5q-33 0 -74 7.5 t-82 17.5v221q41 -10 82 -17t74 -7q45 0 79 10t63.5 37.5t59.5 76t66 121.5l-409 934h-99z" />
<glyph unicode="z" horiz-adv-x="1138" d="M82 0v209l561 606q27 31 53 43v4h-334l-8 -141h-245l8 350h930v-207l-555 -606q-31 -35 -60 -45v-4h369l4 149h252l-17 -358h-958z" />
<glyph unicode="{" d="M0 453v155q76 4 118 73t42 165v424q0 74 22.5 131t61.5 96t91 58.5t114 19.5h165v-152h-55q-68 0 -90.5 -44t-22.5 -115v-418q0 -129 -60 -208t-153 -106v-4q92 -27 152.5 -105.5t60.5 -207.5v-418q0 -72 23 -115.5t90 -43.5h55v-152h-165q-61 0 -113.5 19.5t-91.5 58.5 t-61.5 96t-22.5 131v424q0 96 -42 165t-118 73z" />
<glyph unicode="|" horiz-adv-x="454" d="M117 -512v2048h221v-2048h-221z" />
<glyph unicode="}" d="M-8 -362h55q68 0 90.5 44t22.5 115v418q0 129 60.5 208t152.5 105v4q-92 27 -152.5 106t-60.5 208v418q0 72 -22.5 115.5t-90.5 43.5h-55v152h166q61 0 113.5 -19.5t91 -58.5t61 -96.5t22.5 -130.5v-424q0 -96 42 -165t118 -73v-155q-76 -4 -118 -73t-42 -165v-424 q0 -74 -22.5 -131t-61 -96t-91 -58.5t-113.5 -19.5h-166v152z" />
<glyph unicode="~" horiz-adv-x="1228" d="M141 524q45 92 107.5 133t148.5 41q59 0 120 -21.5t118 -47.5q59 -27 110.5 -48.5t88.5 -21.5q45 0 87 36t93 114l73 -197q-45 -92 -107 -133t-149 -41q-57 0 -118.5 21.5t-119.5 48t-109.5 48t-88.5 21.5q-45 0 -87 -35.5t-93 -113.5z" />
<glyph unicode="&#xa0;" />
<glyph unicode="&#xa1;" d="M111 942q0 78 50 131t142 53t142.5 -53t50.5 -131q0 -92 -55.5 -138t-137.5 -46t-137 46t-55 138zM141 -483l25 1116h274l25 -1116h-324z" />
<glyph unicode="&#xa2;" horiz-adv-x="1212" d="M104 535q0 92 25 184t81 170t147.5 133t226.5 74v194h196v-194q96 -4 173 -19.5t155 -48.5v-301h-221v125q-23 12 -50.5 17t-56.5 5v-665q86 0 160 14.5t141 48.5l-14 -245q-59 -23 -132 -35t-155 -17v-251h-196v262q-236 29 -358 170t-122 379zM391 553 q0 -123 50.5 -208t142.5 -114v635q-94 -23 -143.5 -110.5t-49.5 -202.5z" />
<glyph unicode="&#xa3;" horiz-adv-x="1212" d="M63 0v209h160q16 45 29.5 106.5t13.5 153.5q0 41 -2 80t-8 82h-188v209h176q-4 29 -5 63.5t-1 81.5q0 115 31.5 205t101 151.5t178 94t262.5 32.5q86 0 177 -14t183 -37v-432h-247v242q-33 10 -69 15t-71 5q-121 0 -190.5 -67.5t-69.5 -194.5q0 -43 2 -77l4 -68h261v-209 h-248q4 -35 7 -71t3 -64q0 -84 -11.5 -147.5t-52.5 -139.5h437v252h245v-461h-1108z" />
<glyph unicode="&#xa4;" horiz-adv-x="1212" d="M63 309l123 123q-88 125 -88 285t88 284l-123 123l127 127l121 -121q63 45 138 70t157 25t157 -24.5t138 -70.5l121 121l127 -127l-123 -123q88 -125 88 -284q0 -160 -88 -285l123 -123l-127 -127l-121 121q-63 -45 -138 -69.5t-157 -24.5t-156.5 24.5t-138.5 69.5 l-121 -121zM319 717q0 -68 23 -123t61.5 -94t91 -60.5t111.5 -21.5t111.5 21.5t91.5 60.5t61.5 94t22.5 123t-22.5 123t-61.5 94t-91 60.5t-112 21.5q-59 0 -111.5 -21.5t-91 -60.5t-61.5 -94.5t-23 -122.5z" />
<glyph unicode="&#xa5;" horiz-adv-x="1212" d="M16 1225v209h455v-209h-92q18 -23 32.5 -45.5t28.5 -46.5l193 -349l201 351q27 43 63 90h-115v209h414v-209h-90l-244 -418h193v-176h-293l-35 -60v-49h328v-176h-328v-137h102v-209h-442v209h100v137h-327v176h327v49l-34 60h-293v176h190l-244 418h-90z" />
<glyph unicode="&#xa6;" horiz-adv-x="454" d="M117 358h221v-716h-221v716zM117 666v716h221v-716h-221z" />
<glyph unicode="&#xa7;" horiz-adv-x="1212" d="M117 -25h270v-141q41 -16 90 -26.5t103 -10.5q39 0 76.5 8.5t68.5 24.5t50.5 44t19.5 67q0 23 -6.5 40t-30 35.5t-69.5 40t-126 54.5l-178 71q-74 31 -125 59.5t-83 64.5t-46 79t-14 100q0 115 55 193t145 125q-43 23 -76.5 46t-57 55t-36 76t-12.5 105q0 100 41 171 t111.5 116t163 65.5t194.5 20.5q61 0 122.5 -8t115 -20.5t94.5 -26.5t61 -25v-295h-258v140q-37 16 -77.5 21t-67.5 5q-41 0 -79 -8t-67.5 -25.5t-48 -43t-18.5 -58.5q0 -25 6 -42t22.5 -31.5t47 -30t77.5 -33.5l179 -72q61 -25 122.5 -54.5t110.5 -69.5t79 -92t30 -124 q0 -115 -50.5 -186.5t-144.5 -120.5q78 -41 129 -112.5t51 -170.5q0 -80 -31.5 -152.5t-96 -126.5t-163 -87t-229.5 -33q-160 0 -263 25.5t-181 56.5v317zM385 555q0 -66 49 -98.5t162 -71.5l143 -51q47 27 73 66.5t26 86.5q0 41 -31 77t-123 73l-190 78q-66 -37 -87.5 -78 t-21.5 -82z" />
<glyph unicode="&#xa8;" horiz-adv-x="679" d="M-78 1434q0 76 48 124t132 48t132.5 -48.5t48.5 -123.5q0 -76 -48.5 -124t-132.5 -48t-132 48t-48 124zM397 1434q0 76 48.5 124t132.5 48t132 -48.5t48 -123.5q0 -76 -48 -124t-132 -48t-132.5 48t-48.5 124z" />
<glyph unicode="&#xa9;" horiz-adv-x="1638" d="M78 717q0 154 58.5 289t158.5 235t235.5 158.5t288.5 58.5q154 0 289 -58.5t235.5 -158.5t159 -235.5t58.5 -288.5q0 -154 -58.5 -289t-159 -235.5t-235.5 -159t-289 -58.5t-289 58.5t-235 159t-158.5 235.5t-58.5 289zM262 717q0 -127 44 -233.5t119 -183.5t176 -119 t218 -42t218.5 42t176 119t118.5 183.5t44 233.5t-44 233.5t-118.5 183t-176 118.5t-218.5 42t-218 -42t-176 -118.5t-119 -183t-44 -233.5zM424 719q0 102 29.5 185t84 141.5t131 89t173.5 30.5q137 0 236.5 -78.5t119.5 -228.5h-160q-14 72 -63 114t-137 42 q-57 0 -102.5 -22.5t-76 -62.5t-47 -93.5t-16.5 -116.5q0 -129 64.5 -213t185.5 -84q74 0 128 43t64 123h172q-29 -150 -132 -234t-251 -84q-90 0 -164.5 32t-128 90.5t-82 141t-28.5 185.5z" />
<glyph unicode="&#xaa;" horiz-adv-x="788" d="M57 989q0 72 43 115t101 63q53 18 125.5 24.5t171.5 6.5v8q0 72 -32 97.5t-93 25.5q-41 0 -111 -18v-72h-172v164q63 29 132 47t149 18q147 0 229 -53t82 -194q0 -72 -3 -136.5t-5 -130.5h76v-139h-234q2 29 3 62.5t3 62.5h-4q-27 -66 -80 -103.5t-139 -37.5 q-123 0 -182.5 56t-59.5 134zM254 999q0 -23 22.5 -42t75.5 -19t99.5 33t46.5 112q-139 0 -191.5 -16.5t-52.5 -67.5z" />
<glyph unicode="&#xab;" horiz-adv-x="1138" d="M63 530v160l277 324l203 -170l-211 -234l211 -233l-203 -170zM596 530v160l276 324l203 -170l-211 -234l211 -233l-203 -170z" />
<glyph unicode="&#xac;" horiz-adv-x="1228" d="M96 604v221h1037v-614h-222v393h-815z" />
<glyph unicode="&#xad;" horiz-adv-x="872" d="M137 487v246h598v-246h-598z" />
<glyph unicode="&#xae;" horiz-adv-x="1638" d="M78 717q0 154 58.5 289t158.5 235t235.5 158.5t288.5 58.5q154 0 289 -58.5t235.5 -158.5t159 -235.5t58.5 -288.5q0 -154 -58.5 -289t-159 -235.5t-235.5 -159t-289 -58.5t-289 58.5t-235 159t-158.5 235.5t-58.5 289zM262 717q0 -127 44 -233.5t119 -183.5t176 -119 t218 -42t218.5 42t176 119t118.5 183.5t44 233.5t-44 233.5t-118.5 183t-176 118.5t-218.5 42t-218 -42t-176 -118.5t-119 -183t-44 -233.5zM502 293v848h327q158 0 238 -57.5t80 -186.5q0 -57 -17.5 -99t-47 -71t-68.5 -46t-84 -26l231 -362h-172l-215 356h-125v-356h-147z M649 776h154q115 0 155.5 31t40.5 96q0 59 -51 85t-141 26h-158v-238z" />
<glyph unicode="&#xaf;" horiz-adv-x="679" d="M14 1339v209h652v-209h-652z" />
<glyph unicode="&#xb0;" horiz-adv-x="819" d="M117 1176q0 61 22.5 114t62.5 93t93 62.5t115 22.5q61 0 114.5 -22.5t93 -62.5t62 -93t22.5 -114t-22.5 -114.5t-62 -93.5t-93 -62.5t-114.5 -22.5t-114.5 22.5t-93.5 62.5t-62.5 93.5t-22.5 114.5zM289 1176q0 -59 32.5 -94t88.5 -35q55 0 87.5 35t32.5 94t-32.5 94 t-87.5 35t-88 -35t-33 -94z" />
<glyph unicode="&#xb1;" horiz-adv-x="1228" d="M96 0v221h1037v-221h-1037zM96 547v221h408v268h221v-268h408v-221h-408v-268h-221v268h-408z" />
<glyph unicode="&#xb2;" horiz-adv-x="788" d="M25 582v143q25 16 69.5 47t97 70t105.5 85t97 93t72 92t28 84q0 57 -39 83t-84 26q-66 0 -99.5 -43t-33.5 -105h-209q0 41 16 95.5t56 102.5t109 80.5t173 32.5q59 0 118.5 -13t106.5 -43t77 -78t30 -117q0 -121 -103.5 -241t-279.5 -237l4 -4q25 4 48.5 7t45.5 3h305 v-163h-710z" />
<glyph unicode="&#xb3;" horiz-adv-x="788" d="M23 612v195q72 -35 142.5 -52.5t129.5 -17.5q98 0 149.5 29t51.5 80q0 37 -22.5 59.5t-60.5 33.5t-85 15t-97 4v140q66 0 110 11t69.5 28.5t37 40t11.5 47.5q0 35 -26.5 57.5t-78.5 22.5q-53 0 -88 -34t-35 -81h-208q0 51 21.5 100t64.5 89t108.5 64.5t155.5 24.5 q68 0 124 -15t97 -43t63.5 -69t22.5 -90q0 -78 -52.5 -138t-138.5 -71v-4q45 0 86 -13t73 -38.5t50.5 -64.5t18.5 -91q0 -35 -14.5 -82t-56.5 -89t-121 -70.5t-208 -28.5q-98 0 -166.5 13.5t-127.5 37.5z" />
<glyph unicode="&#xb4;" horiz-adv-x="679" d="M154 1327l444 359l145 -144l-436 -338z" />
<glyph unicode="&#xb5;" horiz-adv-x="1366" d="M47 862v209h430v-600q0 -57 5 -105.5t24.5 -83t56.5 -54t103 -19.5q92 0 157.5 69.5t65.5 198.5v385h-135v209h422v-862h124v-209h-401v57.5t3 60t8 57.5t16 46h-4q-51 -129 -134 -187.5t-176 -58.5q-49 0 -77.5 13.5t-53.5 34.5h-4v-537h-287v1376h-143z" />
<glyph unicode="&#xb6;" horiz-adv-x="1228" d="M31 1044q0 104 34.5 178t97 121.5t150.5 69t195 21.5h506v-1833h-209v1693h-180v-1693h-209v1069q-80 0 -149.5 27.5t-122 77.5t-83 119t-30.5 150z" />
<glyph unicode="&#xb7;" d="M131 545q0 72 50 122t122 50t122 -50.5t50 -121.5q0 -72 -50 -122t-122 -50t-122 50t-50 122z" />
<glyph unicode="&#xb8;" horiz-adv-x="679" d="M100 -483l9 149q35 -12 72.5 -20t76.5 -8q66 0 101.5 21.5t35.5 55.5q0 35 -30.5 53.5t-126.5 18.5v221h184v-131q70 0 113 -16.5t66.5 -43t31.5 -57t8 -57.5q0 -98 -86 -157.5t-227 -59.5q-68 0 -125.5 10t-102.5 21z" />
<glyph unicode="&#xb9;" horiz-adv-x="788" d="M55 1260l334 182h152v-721h174v-139h-557v139h174v534q-14 -10 -25.5 -18t-27.5 -18l-148 -86z" />
<glyph unicode="&#xba;" horiz-adv-x="788" d="M29 1133q0 154 97 244.5t269 90.5q170 0 267.5 -91t97.5 -244q0 -168 -99.5 -251t-265.5 -83q-168 0 -267 83t-99 251zM250 1133q0 -80 37 -131.5t108 -51.5q72 0 108 51.5t36 131.5t-36 132t-108 52t-108.5 -52t-36.5 -132z" />
<glyph unicode="&#xbb;" horiz-adv-x="1138" d="M63 377l211 233l-211 234l203 170l277 -324v-160l-277 -323zM596 377l211 233l-211 234l203 170l276 -324v-160l-276 -323z" />
<glyph unicode="&#xbc;" horiz-adv-x="1820" d="M6 1260l334 182h152v-721h174v-139h-557v139h174v534q-14 -10 -25.5 -18t-28.5 -18l-147 -86zM389 -29l862 1581l176 -90l-862 -1581zM999 225v140l371 495h260v-483h144v-152h-144v-86h90v-139h-389v139h90v86h-422zM1198 371q27 6 55 6h168v295h-4z" />
<glyph unicode="&#xbd;" horiz-adv-x="1820" d="M6 1260l334 182h152v-721h174v-139h-557v139h174v534q-14 -10 -25.5 -18t-28.5 -18l-147 -86zM354 -29l863 1581l176 -90l-863 -1581zM1036 0v143q25 16 70 47t97 70t105.5 85t97.5 93t71.5 92t27.5 84q0 57 -39 83t-84 26q-66 0 -99.5 -43t-33.5 -105h-209 q0 41 15.5 95.5t56.5 101.5q41 49 109.5 82t173.5 33q59 0 118.5 -13.5t106.5 -43t76.5 -77.5t29.5 -118q0 -121 -103 -241t-280 -236l5 -4q25 4 48 7t46 3h305v-164h-711z" />
<glyph unicode="&#xbe;" horiz-adv-x="1820" d="M39 612v195q72 -35 142.5 -52.5t129.5 -17.5q98 0 149.5 29t51.5 80q0 37 -22.5 59.5t-60.5 33.5t-85 15t-96 4v140q66 0 109.5 11t69.5 28.5t37 40t11 47.5q0 35 -26.5 57.5t-77.5 22.5q-53 0 -88 -34t-35 -81h-209q0 51 21.5 100t64.5 89t108.5 64.5t155.5 24.5 q68 0 124 -15t97 -43t63.5 -69t22.5 -90q0 -78 -52 -138t-138 -71v-4q45 0 86 -13t72.5 -38.5t50 -64.5t18.5 -91q0 -35 -14 -82t-56 -89t-121 -70.5t-208 -28.5q-98 0 -167 13.5t-128 37.5zM389 -29l862 1581l176 -90l-862 -1581zM999 225v140l371 495h260v-483h144v-152 h-144v-86h90v-139h-389v139h90v86h-422zM1198 371q27 6 55 6h168v295h-4z" />
<glyph unicode="&#xbf;" horiz-adv-x="985" d="M-31 -133q0 106 38 180t95.5 126t123 90t123 71t95 68.5t37.5 82.5q0 23 -14 53.5t-31 53.5l258 76q33 -45 53.5 -97.5t20.5 -105.5q0 -74 -36 -124t-90 -89t-117.5 -70.5t-118 -68.5t-90 -86.5t-35.5 -120.5q0 -49 20.5 -84t56 -58.5t81.5 -34t98 -10.5q59 0 125.5 10.5 t130.5 28.5l10 -227q-86 -20 -170 -32.5t-158 -12.5q-154 0 -252 40t-154.5 98.5t-78 124t-21.5 118.5zM399 942q0 78 50.5 131t142.5 53t142 -53t50 -131q0 -92 -55 -138t-137 -46t-137.5 46t-55.5 138z" />
<glyph unicode="&#xc0;" horiz-adv-x="1593" d="M29 0v209h114l504 1225h330l473 -1225h115v-209h-570v209h117l-92 274h-494l-102 -274h137v-209h-532zM393 1843l146 144l444 -359l-154 -123zM610 705h334l-102 299q-16 47 -30.5 99t-23.5 109h-4q-12 -57 -28.5 -108t-34.5 -100z" />
<glyph unicode="&#xc1;" horiz-adv-x="1593" d="M29 0v209h114l504 1225h330l473 -1225h115v-209h-570v209h117l-92 274h-494l-102 -274h137v-209h-532zM610 705h334l-102 299q-16 47 -30.5 99t-23.5 109h-4q-12 -57 -28.5 -108t-34.5 -100zM610 1628l445 359l145 -144l-436 -338z" />
<glyph unicode="&#xc2;" horiz-adv-x="1593" d="M29 0v209h114l504 1225h330l473 -1225h115v-209h-570v209h117l-92 274h-494l-102 -274h137v-209h-532zM338 1673l371 285h176l370 -285l-165 -135l-293 229l-293 -229zM610 705h334l-102 299q-16 47 -30.5 99t-23.5 109h-4q-12 -57 -28.5 -108t-34.5 -100z" />
<glyph unicode="&#xc3;" horiz-adv-x="1593" d="M29 0v209h114l504 1225h330l473 -1225h115v-209h-570v209h117l-92 274h-494l-102 -274h137v-209h-532zM377 1677q39 96 111.5 158.5t170.5 62.5q49 0 88 -16t73 -36.5t63.5 -37t62.5 -16.5q37 0 60.5 17.5t62.5 72.5l148 -104q-20 -37 -47 -73t-60 -62.5t-73 -43 t-85 -16.5q-41 0 -81 17.5t-75.5 39t-69.5 39t-62 17.5q-29 0 -56.5 -22.5t-56.5 -80.5zM610 705h334l-102 299q-16 47 -30.5 99t-23.5 109h-4q-12 -57 -28.5 -108t-34.5 -100z" />
<glyph unicode="&#xc4;" horiz-adv-x="1593" d="M29 0v209h114l504 1225h330l473 -1225h115v-209h-570v209h117l-92 274h-494l-102 -274h137v-209h-532zM379 1735q0 76 48 124t132 48t132 -48.5t48 -123.5q0 -76 -48 -124t-132 -48t-132 48t-48 124zM610 705h334l-102 299q-16 47 -30.5 99t-23.5 109h-4 q-12 -57 -28.5 -108t-34.5 -100zM854 1735q0 76 48 124t132 48t132 -48.5t48 -123.5q0 -76 -48 -124t-132 -48t-132 48t-48 124z" />
<glyph unicode="&#xc5;" horiz-adv-x="1593" d="M29 0v209h114l504 1225h330l473 -1225h115v-209h-570v209h117l-92 274h-494l-102 -274h137v-209h-532zM553 1700q0 96 66.5 158.5t177.5 62.5t177 -62.5t66 -158.5t-66.5 -158.5t-176.5 -62.5q-111 0 -177.5 62.5t-66.5 158.5zM610 705h334l-102 299q-16 47 -30.5 99 t-23.5 109h-4q-12 -57 -28.5 -108t-34.5 -100zM713 1700q0 -49 22.5 -78t61.5 -29t61.5 29t22.5 78t-22.5 77.5t-61.5 28.5t-61.5 -28.5t-22.5 -77.5z" />
<glyph unicode="&#xc6;" horiz-adv-x="2086" d="M29 0v209h104l694 1225h1115l12 -422h-246l-12 213h-316v-418h324v-209h-324v-389h359l16 242h246l-16 -451h-1043v209h139v389h-448l-201 -389h139v-209h-542zM739 807h342v418h-127z" />
<glyph unicode="&#xc7;" horiz-adv-x="1402" d="M70 707q0 145 47 281t143 240.5t242.5 167t345.5 62.5q137 0 253 -23.5t220 -60.5v-399h-258v229q-53 18 -100.5 25.5t-102.5 7.5q-129 0 -218 -43t-144.5 -114.5t-80 -164t-24.5 -190.5q0 -82 20.5 -172t75 -167t148.5 -127t240 -50q31 0 80 4t87 16l13 260h258 l-12 -442q-100 -35 -195.5 -51t-200.5 -21v-98q70 0 113 -16.5t66.5 -43t31.5 -57t8 -57.5q0 -98 -86 -157.5t-227 -59.5q-68 0 -125 10t-102 21l8 149q35 -12 73 -20t76 -8q66 0 102 21.5t36 55.5q0 35 -31 53.5t-127 18.5v193q-154 16 -275.5 74.5t-205.5 151.5t-128 220 t-44 281z" />
<glyph unicode="&#xc8;" horiz-adv-x="1214" d="M57 1225v209h1049l12 -422h-246l-12 213h-350v-377h360v-221h-360v-418h356l17 242h245l-16 -451h-1030v209h129v1016h-154zM205 1843l145 144l445 -359l-154 -123z" />
<glyph unicode="&#xc9;" horiz-adv-x="1214" d="M57 1225v209h1049l12 -422h-246l-12 213h-350v-377h360v-221h-360v-418h356l17 242h245l-16 -451h-1030v209h129v1016h-154zM422 1628l444 359l146 -144l-437 -338z" />
<glyph unicode="&#xca;" horiz-adv-x="1214" d="M57 1225v209h1049l12 -422h-246l-12 213h-350v-377h360v-221h-360v-418h356l17 242h245l-16 -451h-1030v209h129v1016h-154zM150 1673l370 285h176l371 -285l-166 -135l-293 229l-293 -229z" />
<glyph unicode="&#xcb;" horiz-adv-x="1214" d="M57 1225v209h1049l12 -422h-246l-12 213h-350v-377h360v-221h-360v-418h356l17 242h245l-16 -451h-1030v209h129v1016h-154zM190 1735q0 76 48.5 124t132.5 48t132 -48.5t48 -123.5q0 -76 -48 -124t-132 -48t-132.5 48t-48.5 124zM666 1735q0 76 48 124t132 48t132 -48.5 t48 -123.5q0 -76 -48 -124t-132 -48t-132 48t-48 124z" />
<glyph unicode="&#xcc;" horiz-adv-x="720" d="M-43 1843l145 144l445 -359l-154 -123zM82 0v209h129v1016h-129v209h557v-209h-129v-1016h129v-209h-557z" />
<glyph unicode="&#xcd;" horiz-adv-x="720" d="M82 0v209h129v1016h-129v209h557v-209h-129v-1016h129v-209h-557zM174 1628l444 359l146 -144l-436 -338z" />
<glyph unicode="&#xce;" horiz-adv-x="720" d="M-98 1673l370 285h177l370 -285l-166 -135l-293 229l-292 -229zM82 0v209h129v1016h-129v209h557v-209h-129v-1016h129v-209h-557z" />
<glyph unicode="&#xcf;" horiz-adv-x="720" d="M-57 1735q0 76 48 124t132 48t132 -48.5t48 -123.5q0 -76 -48 -124t-132 -48t-132 48t-48 124zM82 0v209h129v1016h-129v209h557v-209h-129v-1016h129v-209h-557zM418 1735q0 76 48 124t132 48t132 -48.5t48 -123.5q0 -76 -48 -124t-132 -48t-132 48t-48 124z" />
<glyph unicode="&#xd0;" horiz-adv-x="1554" d="M57 0v209h154v430h-154v209h154v377h-154v209h670q180 0 322.5 -44t242 -130t151.5 -215.5t52 -296.5q0 -166 -52 -304.5t-148.5 -236.5t-236.5 -152.5t-315 -54.5h-686zM510 209h174q90 0 178 27.5t156.5 90t110.5 164t42 248.5q0 137 -38.5 230.5t-106.5 150t-157 81 t-189 24.5h-170v-377h305v-209h-305v-430z" />
<glyph unicode="&#xd1;" horiz-adv-x="1630" d="M29 1225v209h415l605 -760q47 -59 76.5 -105.5t43.5 -87.5h5v744h-132v209h519v-209h-142v-1225h-221l-682 856q-27 33 -45 63.5t-22 47.5h-5v-758h140v-209h-506v209h133v1016h-182zM395 1677q39 96 112 158.5t171 62.5q49 0 88 -16t72.5 -36.5t63.5 -37t63 -16.5 q37 0 60.5 17.5t61.5 72.5l148 -104q-20 -37 -47 -73t-59.5 -62.5t-72.5 -43t-85 -16.5q-41 0 -81 17.5t-76 39t-69.5 39t-62.5 17.5t-56.5 -22.5t-56.5 -80.5z" />
<glyph unicode="&#xd2;" horiz-adv-x="1556" d="M70 717q0 147 47 281.5t137 236.5t222 162.5t302 60.5q182 0 316.5 -56t221.5 -155.5t129 -236t42 -293.5q0 -152 -40 -286t-126 -235.5t-220 -161t-323 -59.5q-188 0 -322 59.5t-220 161t-126 235.5t-40 286zM375 1843l145 144l445 -359l-154 -123zM393 717 q0 -104 20.5 -196.5t66.5 -161t119 -109.5t179 -41t179 41t119 109.5t66.5 160.5t20.5 197q0 104 -22.5 196.5t-68.5 161t-119.5 109.5t-174.5 41q-102 0 -175 -41t-119 -109.5t-68.5 -161t-22.5 -196.5z" />
<glyph unicode="&#xd3;" horiz-adv-x="1556" d="M70 717q0 147 47 281.5t137 236.5t222 162.5t302 60.5q182 0 316.5 -56t221.5 -155.5t129 -236t42 -293.5q0 -152 -40 -286t-126 -235.5t-220 -161t-323 -59.5q-188 0 -322 59.5t-220 161t-126 235.5t-40 286zM393 717q0 -104 20.5 -196.5t66.5 -161t119 -109.5t179 -41 t179 41t119 109.5t66.5 160.5t20.5 197q0 104 -22.5 196.5t-68.5 161t-119.5 109.5t-174.5 41q-102 0 -175 -41t-119 -109.5t-68.5 -161t-22.5 -196.5zM592 1628l444 359l146 -144l-437 -338z" />
<glyph unicode="&#xd4;" horiz-adv-x="1556" d="M70 717q0 147 47 281.5t137 236.5t222 162.5t302 60.5q182 0 316.5 -56t221.5 -155.5t129 -236t42 -293.5q0 -152 -40 -286t-126 -235.5t-220 -161t-323 -59.5q-188 0 -322 59.5t-220 161t-126 235.5t-40 286zM319 1673l371 285h176l371 -285l-166 -135l-293 229 l-293 -229zM393 717q0 -104 20.5 -196.5t66.5 -161t119 -109.5t179 -41t179 41t119 109.5t66.5 160.5t20.5 197q0 104 -22.5 196.5t-68.5 161t-119.5 109.5t-174.5 41q-102 0 -175 -41t-119 -109.5t-68.5 -161t-22.5 -196.5z" />
<glyph unicode="&#xd5;" horiz-adv-x="1556" d="M70 717q0 147 47 281.5t137 236.5t222 162.5t302 60.5q182 0 316.5 -56t221.5 -155.5t129 -236t42 -293.5q0 -152 -40 -286t-126 -235.5t-220 -161t-323 -59.5q-188 0 -322 59.5t-220 161t-126 235.5t-40 286zM358 1677q39 96 112 158.5t171 62.5q49 0 88 -16t73 -36.5 t63.5 -37t62.5 -16.5q37 0 60.5 17.5t62.5 72.5l147 -104q-20 -37 -47 -73t-59.5 -62.5t-72.5 -43t-85 -16.5q-41 0 -81 17.5t-76 39t-69.5 39t-62.5 17.5t-56.5 -22.5t-56.5 -80.5zM393 717q0 -104 20.5 -196.5t66.5 -161t119 -109.5t179 -41t179 41t119 109.5t66.5 160.5 t20.5 197q0 104 -22.5 196.5t-68.5 161t-119.5 109.5t-174.5 41q-102 0 -175 -41t-119 -109.5t-68.5 -161t-22.5 -196.5z" />
<glyph unicode="&#xd6;" horiz-adv-x="1556" d="M70 717q0 147 47 281.5t137 236.5t222 162.5t302 60.5q182 0 316.5 -56t221.5 -155.5t129 -236t42 -293.5q0 -152 -40 -286t-126 -235.5t-220 -161t-323 -59.5q-188 0 -322 59.5t-220 161t-126 235.5t-40 286zM360 1735q0 76 48.5 124t132.5 48t132 -48.5t48 -123.5 q0 -76 -48 -124t-132 -48t-132.5 48t-48.5 124zM393 717q0 -104 20.5 -196.5t66.5 -161t119 -109.5t179 -41t179 41t119 109.5t66.5 160.5t20.5 197q0 104 -22.5 196.5t-68.5 161t-119.5 109.5t-174.5 41q-102 0 -175 -41t-119 -109.5t-68.5 -161t-22.5 -196.5zM836 1735 q0 76 48 124t132 48t132 -48.5t48 -123.5q0 -76 -48 -124t-132 -48t-132 48t-48 124z" />
<glyph unicode="&#xd7;" horiz-adv-x="1228" d="M127 186l332 332l-332 332l156 156l331 -332l332 332l156 -156l-332 -332l332 -332l-156 -155l-332 331l-331 -331z" />
<glyph unicode="&#xd8;" horiz-adv-x="1556" d="M70 717q0 147 47 281.5t137 236.5t222 162.5t302 60.5q180 0 309 -57l154 254l158 -94l-152 -250q123 -98 181.5 -252t58.5 -342q0 -152 -40 -286t-126 -235.5t-220 -161t-323 -59.5q-180 0 -309 56l-154 -252l-157 94l153 252q-127 100 -184 255t-57 337zM393 717 q0 -96 17.5 -181t56.5 -153l487 801q-72 41 -176 41q-102 0 -175 -41t-119 -109.5t-68.5 -161t-22.5 -196.5zM602 248q37 -18 80 -28.5t96 -10.5q106 0 179 41t119 109.5t66.5 160.5t20.5 197q0 96 -18.5 180t-57.5 150z" />
<glyph unicode="&#xd9;" horiz-adv-x="1554" d="M57 1225v209h557v-209h-129v-674q0 -78 13.5 -141.5t46.5 -108.5t89 -68.5t142 -23.5q72 0 131.5 14.5t101.5 53t65.5 105.5t23.5 169v674h-158v209h557v-209h-129v-656q0 -168 -36 -281.5t-110.5 -183t-189 -99.5t-272.5 -30q-176 0 -288 38t-175.5 106.5t-87 165 t-23.5 215.5v725h-129zM375 1843l145 144l445 -359l-154 -123z" />
<glyph unicode="&#xda;" horiz-adv-x="1554" d="M57 1225v209h557v-209h-129v-674q0 -78 13.5 -141.5t46.5 -108.5t89 -68.5t142 -23.5q72 0 131.5 14.5t101.5 53t65.5 105.5t23.5 169v674h-158v209h557v-209h-129v-656q0 -168 -36 -281.5t-110.5 -183t-189 -99.5t-272.5 -30q-176 0 -288 38t-175.5 106.5t-87 165 t-23.5 215.5v725h-129zM592 1628l444 359l146 -144l-437 -338z" />
<glyph unicode="&#xdb;" horiz-adv-x="1554" d="M57 1225v209h557v-209h-129v-674q0 -78 13.5 -141.5t46.5 -108.5t89 -68.5t142 -23.5q72 0 131.5 14.5t101.5 53t65.5 105.5t23.5 169v674h-158v209h557v-209h-129v-656q0 -168 -36 -281.5t-110.5 -183t-189 -99.5t-272.5 -30q-176 0 -288 38t-175.5 106.5t-87 165 t-23.5 215.5v725h-129zM319 1673l371 285h176l371 -285l-166 -135l-293 229l-293 -229z" />
<glyph unicode="&#xdc;" horiz-adv-x="1554" d="M57 1225v209h557v-209h-129v-674q0 -78 13.5 -141.5t46.5 -108.5t89 -68.5t142 -23.5q72 0 131.5 14.5t101.5 53t65.5 105.5t23.5 169v674h-158v209h557v-209h-129v-656q0 -168 -36 -281.5t-110.5 -183t-189 -99.5t-272.5 -30q-176 0 -288 38t-175.5 106.5t-87 165 t-23.5 215.5v725h-129zM360 1735q0 76 48.5 124t132.5 48t132 -48.5t48 -123.5q0 -76 -48 -124t-132 -48t-132.5 48t-48.5 124zM836 1735q0 76 48 124t132 48t132 -48.5t48 -123.5q0 -76 -48 -124t-132 -48t-132 48t-48 124z" />
<glyph unicode="&#xdd;" horiz-adv-x="1517" d="M20 1225v209h570v-209h-115q23 -23 41.5 -45.5t34.5 -46.5l237 -349l256 351q16 23 35 45t41 45h-143v209h520v-209h-113l-475 -654v-362h129v-209h-555v209h127v360l-477 656h-113zM573 1628l445 359l145 -144l-436 -338z" />
<glyph unicode="&#xde;" horiz-adv-x="1251" d="M82 0v209h141v1016h-141v209h582v-209h-142v-82h152q262 0 393 -92.5t131 -294.5q0 -96 -34 -174t-96 -132.5t-150.5 -84t-194.5 -29.5h-201v-127h142v-209h-582zM522 545h162q227 0 227 194q0 195 -227 195h-162v-389z" />
<glyph unicode="&#xdf;" horiz-adv-x="1554" d="M76 862v209h139q0 109 26.5 206t94 170t186.5 116t303 43q236 0 366 -90.5t130 -237.5q0 -76 -25.5 -131t-64.5 -96t-85 -72t-85 -58.5t-64.5 -54t-25.5 -61.5q0 -41 38 -64.5t94 -44t121.5 -43t122 -61.5t94.5 -99.5t38 -156.5q0 -68 -23.5 -133.5t-76 -115.5 t-134.5 -81t-198 -31q-49 0 -99.5 3.5t-95.5 9.5t-83 13t-62 15v291h233v-104q27 -6 60.5 -12.5t62.5 -6.5q63 0 110.5 24.5t47.5 90.5q0 41 -19.5 67.5t-91.5 51.5l-154 53q-68 25 -116.5 49.5t-79.5 55t-45.5 71.5t-14.5 98q0 66 26 116t64.5 91t85 75t85 65.5t64.5 66.5 t26 76t-21.5 69.5t-56.5 46t-78 25.5t-86 8q-86 0 -145.5 -23.5t-95.5 -66.5t-51 -103.5t-15 -133.5v-848h135v-209h-539v209h117v653h-139z" />
<glyph unicode="&#xe0;" horiz-adv-x="1214" d="M86 287q0 57 17.5 105t47 85t68.5 62.5t82 42.5q82 29 193.5 39t269.5 10v51q0 121 -51 163t-152 42q-31 0 -86 -8.5t-92 -22.5v-143h-246v272q27 14 70 33.5t99 36t122 29t137 12.5q106 0 193.5 -20.5t149 -69t94 -127t32.5 -195.5q0 -133 -3 -246.5t-7 -228.5h121v-209 h-361v66q0 53 3.5 84.5t11.5 62.5h-4q-53 -123 -134 -180.5t-217 -57.5q-90 0 -157.5 25t-112.5 68t-66.5 99t-21.5 120zM205 1542l145 144l445 -359l-154 -123zM373 313q0 -47 35.5 -88t121.5 -41q43 0 84 14.5t74 47.5t52.5 84t19.5 125h-80q-88 0 -146.5 -9.5t-94.5 -27 t-51 -44t-15 -61.5z" />
<glyph unicode="&#xe1;" horiz-adv-x="1214" d="M86 287q0 57 17.5 105t47 85t68.5 62.5t82 42.5q82 29 193.5 39t269.5 10v51q0 121 -51 163t-152 42q-31 0 -86 -8.5t-92 -22.5v-143h-246v272q27 14 70 33.5t99 36t122 29t137 12.5q106 0 193.5 -20.5t149 -69t94 -127t32.5 -195.5q0 -133 -3 -246.5t-7 -228.5h121v-209 h-361v66q0 53 3.5 84.5t11.5 62.5h-4q-53 -123 -134 -180.5t-217 -57.5q-90 0 -157.5 25t-112.5 68t-66.5 99t-21.5 120zM373 313q0 -47 35.5 -88t121.5 -41q43 0 84 14.5t74 47.5t52.5 84t19.5 125h-80q-88 0 -146.5 -9.5t-94.5 -27t-51 -44t-15 -61.5zM422 1327l444 359 l146 -144l-437 -338z" />
<glyph unicode="&#xe2;" horiz-adv-x="1214" d="M86 287q0 57 17.5 105t47 85t68.5 62.5t82 42.5q82 29 193.5 39t269.5 10v51q0 121 -51 163t-152 42q-31 0 -86 -8.5t-92 -22.5v-143h-246v272q27 14 70 33.5t99 36t122 29t137 12.5q106 0 193.5 -20.5t149 -69t94 -127t32.5 -195.5q0 -133 -3 -246.5t-7 -228.5h121v-209 h-361v66q0 53 3.5 84.5t11.5 62.5h-4q-53 -123 -134 -180.5t-217 -57.5q-90 0 -157.5 25t-112.5 68t-66.5 99t-21.5 120zM150 1372l370 285h176l371 -285l-166 -135l-293 229l-293 -229zM373 313q0 -47 35.5 -88t121.5 -41q43 0 84 14.5t74 47.5t52.5 84t19.5 125h-80 q-88 0 -146.5 -9.5t-94.5 -27t-51 -44t-15 -61.5z" />
<glyph unicode="&#xe3;" horiz-adv-x="1214" d="M86 287q0 57 17.5 105t47 85t68.5 62.5t82 42.5q82 29 193.5 39t269.5 10v51q0 121 -51 163t-152 42q-31 0 -86 -8.5t-92 -22.5v-143h-246v272q27 14 70 33.5t99 36t122 29t137 12.5q106 0 193.5 -20.5t149 -69t94 -127t32.5 -195.5q0 -133 -3 -246.5t-7 -228.5h121v-209 h-361v66q0 53 3.5 84.5t11.5 62.5h-4q-53 -123 -134 -180.5t-217 -57.5q-90 0 -157.5 25t-112.5 68t-66.5 99t-21.5 120zM188 1376q39 96 112 158.5t171 62.5q49 0 88 -16t73 -36.5t63.5 -37t62.5 -16.5q37 0 60.5 17.5t62.5 72.5l147 -104q-20 -37 -47 -73t-59.5 -62.5 t-72.5 -43t-85 -16.5q-41 0 -81 17.5t-76 39t-69.5 39t-62.5 17.5t-56.5 -22.5t-56.5 -80.5zM373 313q0 -47 35.5 -88t121.5 -41q43 0 84 14.5t74 47.5t52.5 84t19.5 125h-80q-88 0 -146.5 -9.5t-94.5 -27t-51 -44t-15 -61.5z" />
<glyph unicode="&#xe4;" horiz-adv-x="1214" d="M86 287q0 57 17.5 105t47 85t68.5 62.5t82 42.5q82 29 193.5 39t269.5 10v51q0 121 -51 163t-152 42q-31 0 -86 -8.5t-92 -22.5v-143h-246v272q27 14 70 33.5t99 36t122 29t137 12.5q106 0 193.5 -20.5t149 -69t94 -127t32.5 -195.5q0 -133 -3 -246.5t-7 -228.5h121v-209 h-361v66q0 53 3.5 84.5t11.5 62.5h-4q-53 -123 -134 -180.5t-217 -57.5q-90 0 -157.5 25t-112.5 68t-66.5 99t-21.5 120zM190 1434q0 76 48.5 124t132.5 48t132 -48.5t48 -123.5q0 -76 -48 -124t-132 -48t-132.5 48t-48.5 124zM373 313q0 -47 35.5 -88t121.5 -41 q43 0 84 14.5t74 47.5t52.5 84t19.5 125h-80q-88 0 -146.5 -9.5t-94.5 -27t-51 -44t-15 -61.5zM666 1434q0 76 48 124t132 48t132 -48.5t48 -123.5q0 -76 -48 -124t-132 -48t-132 48t-48 124z" />
<glyph unicode="&#xe5;" horiz-adv-x="1214" d="M86 287q0 57 17.5 105t47 85t68.5 62.5t82 42.5q82 29 193.5 39t269.5 10v51q0 121 -51 163t-152 42q-31 0 -86 -8.5t-92 -22.5v-143h-246v272q27 14 70 33.5t99 36t122 29t137 12.5q106 0 193.5 -20.5t149 -69t94 -127t32.5 -195.5q0 -133 -3 -246.5t-7 -228.5h121v-209 h-361v66q0 53 3.5 84.5t11.5 62.5h-4q-53 -123 -134 -180.5t-217 -57.5q-90 0 -157.5 25t-112.5 68t-66.5 99t-21.5 120zM365 1460q0 96 66.5 158.5t176.5 62.5q111 0 177.5 -62.5t66.5 -158.5t-66.5 -158.5t-177.5 -62.5t-177 62.5t-66 158.5zM373 313q0 -47 35.5 -88 t121.5 -41q43 0 84 14.5t74 47.5t52.5 84t19.5 125h-80q-88 0 -146.5 -9.5t-94.5 -27t-51 -44t-15 -61.5zM524 1460q0 -49 22.5 -77.5t61.5 -28.5t61.5 28.5t22.5 77.5t-22.5 78t-61.5 29t-61.5 -29t-22.5 -78z" />
<glyph unicode="&#xe6;" horiz-adv-x="1820" d="M86 297q0 102 44 167.5t129 105.5t209 56.5t286 20.5q0 37 -3 81t-23.5 82t-65 63.5t-123.5 25.5q-33 0 -75 -7t-75 -18v-149h-258v293q41 18 92 32.5t103.5 24.5t103.5 15.5t92 5.5q147 0 253 -45t145 -154q70 119 159.5 159t188.5 40q143 0 233 -55.5t142.5 -144.5 t72 -200.5t19.5 -224.5h-711q0 -274 350 -274q94 0 173 20.5t153 54.5l-14 -219q-98 -49 -196.5 -63.5t-180.5 -14.5q-102 0 -178 18.5t-128.5 50.5t-86 77t-52.5 98h-4q-41 -131 -134 -187.5t-265 -56.5q-92 0 -162 26t-118 69t-71.5 101t-23.5 126zM373 309q0 -18 6 -40.5 t23.5 -41t48 -31t79.5 -12.5q37 0 76 12.5t71 40t52.5 72.5t20.5 109v53h-62q-168 0 -241.5 -38t-73.5 -124zM1024 647h424q0 74 -20.5 122t-53.5 76.5t-70.5 41t-72.5 12.5q-57 0 -96 -20.5t-63.5 -55.5t-36 -81t-11.5 -95z" />
<glyph unicode="&#xe7;" horiz-adv-x="1024" d="M63 535q0 129 40 233t114 177t177.5 112t232.5 39q98 0 181 -14.5t157 -37.5v-313h-246v143q-29 6 -50.5 9.5t-47.5 3.5q-72 0 -123.5 -30t-84 -76t-48 -103t-15.5 -113q0 -68 18.5 -132t59.5 -114.5t105.5 -80t156.5 -29.5q139 0 268 59l-16 -241q-66 -23 -120 -35 t-132 -17v-98q70 0 113 -16.5t66.5 -43t31.5 -57t8 -57.5q0 -98 -86 -157.5t-227 -59.5q-68 0 -125 10t-102 21l8 149q35 -12 72.5 -20t76.5 -8q66 0 102 21.5t36 55.5q0 35 -31 53.5t-127 18.5v197q-109 18 -192 68t-138 123t-84 165t-29 195z" />
<glyph unicode="&#xe8;" horiz-adv-x="1175" d="M63 530q0 125 37 229.5t106.5 179.5t169 116t226.5 41q137 0 235.5 -49.5t162 -133.5t92 -198.5t28.5 -243.5h-745q6 -129 97 -201.5t243 -72.5q102 0 179 17t167 56l-14 -227q-100 -37 -192.5 -52.5t-203.5 -15.5q-156 0 -266.5 45.5t-182 121t-105.5 177t-34 211.5z M184 1542l146 144l444 -359l-153 -123zM373 668h436q0 111 -58.5 171t-158.5 60q-98 0 -153.5 -60.5t-65.5 -170.5z" />
<glyph unicode="&#xe9;" horiz-adv-x="1175" d="M63 530q0 125 37 229.5t106.5 179.5t169 116t226.5 41q137 0 235.5 -49.5t162 -133.5t92 -198.5t28.5 -243.5h-745q6 -129 97 -201.5t243 -72.5q102 0 179 17t167 56l-14 -227q-100 -37 -192.5 -52.5t-203.5 -15.5q-156 0 -266.5 45.5t-182 121t-105.5 177t-34 211.5z M373 668h436q0 111 -58.5 171t-158.5 60q-98 0 -153.5 -60.5t-65.5 -170.5zM401 1327l445 359l145 -144l-436 -338z" />
<glyph unicode="&#xea;" horiz-adv-x="1175" d="M63 530q0 125 37 229.5t106.5 179.5t169 116t226.5 41q137 0 235.5 -49.5t162 -133.5t92 -198.5t28.5 -243.5h-745q6 -129 97 -201.5t243 -72.5q102 0 179 17t167 56l-14 -227q-100 -37 -192.5 -52.5t-203.5 -15.5q-156 0 -266.5 45.5t-182 121t-105.5 177t-34 211.5z M129 1372l371 285h176l371 -285l-166 -135l-293 229l-293 -229zM373 668h436q0 111 -58.5 171t-158.5 60q-98 0 -153.5 -60.5t-65.5 -170.5z" />
<glyph unicode="&#xeb;" horiz-adv-x="1175" d="M63 530q0 125 37 229.5t106.5 179.5t169 116t226.5 41q137 0 235.5 -49.5t162 -133.5t92 -198.5t28.5 -243.5h-745q6 -129 97 -201.5t243 -72.5q102 0 179 17t167 56l-14 -227q-100 -37 -192.5 -52.5t-203.5 -15.5q-156 0 -266.5 45.5t-182 121t-105.5 177t-34 211.5z M170 1434q0 76 48 124t132 48t132 -48.5t48 -123.5q0 -76 -48 -124t-132 -48t-132 48t-48 124zM373 668h436q0 111 -58.5 171t-158.5 60q-98 0 -153.5 -60.5t-65.5 -170.5zM645 1434q0 76 48 124t132 48t132.5 -48.5t48.5 -123.5q0 -76 -48.5 -124t-132.5 -48t-132 48 t-48 124z" />
<glyph unicode="&#xec;" horiz-adv-x="679" d="M-63 1542l145 144l444 -359l-153 -123zM57 862v209h426v-862h123v-209h-526v209h117v653h-140z" />
<glyph unicode="&#xed;" horiz-adv-x="679" d="M57 862v209h426v-862h123v-209h-526v209h117v653h-140zM154 1327l444 359l145 -144l-436 -338z" />
<glyph unicode="&#xee;" horiz-adv-x="679" d="M-119 1372l371 285h176l371 -285l-166 -135l-293 229l-293 -229zM57 862v209h426v-862h123v-209h-526v209h117v653h-140z" />
<glyph unicode="&#xef;" horiz-adv-x="679" d="M-78 1434q0 76 48 124t132 48t132.5 -48.5t48.5 -123.5q0 -76 -48.5 -124t-132.5 -48t-132 48t-48 124zM57 862v209h426v-862h123v-209h-526v209h117v653h-140zM397 1434q0 76 48.5 124t132.5 48t132 -48.5t48 -123.5q0 -76 -48 -124t-132 -48t-132.5 48t-48.5 124z" />
<glyph unicode="&#xf0;" horiz-adv-x="1253" d="M63 524q0 115 39 218.5t112 182.5t177.5 125t235.5 46q66 0 117 -21.5t83 -44.5l4 4q-16 39 -38.5 80t-49 78t-54 67.5t-50.5 49.5l-193 -103l-129 119l185 98q-45 33 -85 58.5t-81 42.5l209 123q55 -31 93 -55.5t79 -53.5l164 88l129 -119l-146 -77q61 -55 120.5 -130 t105 -172.5t73 -220.5t27.5 -272q0 -154 -32 -275.5t-100.5 -207.5t-175 -131.5t-255.5 -45.5q-129 0 -232.5 35t-177.5 103.5t-114 171t-40 239.5zM375 518q0 -145 59.5 -227t192.5 -82t192.5 82t59.5 227q0 174 -59.5 259t-192.5 85q-66 0 -114 -26.5t-79 -72.5 t-45 -108.5t-14 -136.5z" />
<glyph unicode="&#xf1;" horiz-adv-x="1402" d="M57 862v209h420q0 -55 -2 -108.5t-14 -112.5h4q41 106 135 176t236 70q190 0 280 -113t90 -305v-469h123v-209h-526v209h117v440q0 111 -52.5 156t-134.5 45q-66 0 -113 -21.5t-77.5 -60.5t-45 -90t-14.5 -113v-356h123v-209h-514v209h105v653h-140zM283 1376 q39 96 111.5 158.5t170.5 62.5q49 0 88 -16t73 -36.5t63.5 -37t62.5 -16.5q37 0 60.5 17.5t62.5 72.5l147 -104q-20 -37 -46.5 -73t-59.5 -62.5t-73 -43t-85 -16.5q-41 0 -81 17.5t-75.5 39t-69.5 39t-63 17.5t-56.5 -22.5t-55.5 -80.5z" />
<glyph unicode="&#xf2;" horiz-adv-x="1253" d="M63 524q0 115 39 218.5t112 182.5t177.5 125t235.5 46q272 0 417.5 -145.5t145.5 -426.5q0 -121 -40 -221t-113.5 -173t-177 -114t-232.5 -41t-232.5 35t-177.5 103.5t-114 171t-40 239.5zM223 1542l146 144l444 -359l-154 -123zM375 518q0 -145 59.5 -227t192.5 -82 t192.5 82t59.5 227q0 174 -59.5 259t-192.5 85q-66 0 -114 -26.5t-79 -72.5t-45 -108.5t-14 -136.5z" />
<glyph unicode="&#xf3;" horiz-adv-x="1253" d="M63 524q0 115 39 218.5t112 182.5t177.5 125t235.5 46q272 0 417.5 -145.5t145.5 -426.5q0 -121 -40 -221t-113.5 -173t-177 -114t-232.5 -41t-232.5 35t-177.5 103.5t-114 171t-40 239.5zM375 518q0 -145 59.5 -227t192.5 -82t192.5 82t59.5 227q0 174 -59.5 259 t-192.5 85q-66 0 -114 -26.5t-79 -72.5t-45 -108.5t-14 -136.5zM440 1327l445 359l145 -144l-436 -338z" />
<glyph unicode="&#xf4;" horiz-adv-x="1253" d="M63 524q0 115 39 218.5t112 182.5t177.5 125t235.5 46q272 0 417.5 -145.5t145.5 -426.5q0 -121 -40 -221t-113.5 -173t-177 -114t-232.5 -41t-232.5 35t-177.5 103.5t-114 171t-40 239.5zM168 1372l371 285h176l370 -285l-165 -135l-293 229l-293 -229zM375 518 q0 -145 59.5 -227t192.5 -82t192.5 82t59.5 227q0 174 -59.5 259t-192.5 85q-66 0 -114 -26.5t-79 -72.5t-45 -108.5t-14 -136.5z" />
<glyph unicode="&#xf5;" horiz-adv-x="1253" d="M63 524q0 115 39 218.5t112 182.5t177.5 125t235.5 46q272 0 417.5 -145.5t145.5 -426.5q0 -121 -40 -221t-113.5 -173t-177 -114t-232.5 -41t-232.5 35t-177.5 103.5t-114 171t-40 239.5zM207 1376q39 96 111.5 158.5t170.5 62.5q49 0 88 -16t73 -36.5t63.5 -37 t62.5 -16.5q37 0 60.5 17.5t62.5 72.5l148 -104q-20 -37 -47 -73t-60 -62.5t-73 -43t-85 -16.5q-41 0 -80.5 17.5t-75.5 39t-70 39t-62 17.5q-29 0 -56.5 -22.5t-56.5 -80.5zM375 518q0 -145 59.5 -227t192.5 -82t192.5 82t59.5 227q0 174 -59.5 259t-192.5 85 q-66 0 -114 -26.5t-79 -72.5t-45 -108.5t-14 -136.5z" />
<glyph unicode="&#xf6;" horiz-adv-x="1253" d="M63 524q0 115 39 218.5t112 182.5t177.5 125t235.5 46q272 0 417.5 -145.5t145.5 -426.5q0 -121 -40 -221t-113.5 -173t-177 -114t-232.5 -41t-232.5 35t-177.5 103.5t-114 171t-40 239.5zM209 1434q0 76 48 124t132 48t132 -48.5t48 -123.5q0 -76 -48 -124t-132 -48 t-132 48t-48 124zM375 518q0 -145 59.5 -227t192.5 -82t192.5 82t59.5 227q0 174 -59.5 259t-192.5 85q-66 0 -114 -26.5t-79 -72.5t-45 -108.5t-14 -136.5zM684 1434q0 76 48 124t132 48t132 -48.5t48 -123.5q0 -76 -48 -124t-132 -48t-132 48t-48 124z" />
<glyph unicode="&#xf7;" horiz-adv-x="1228" d="M96 408v221h1037v-221h-1037zM442 94q0 72 50.5 122t121.5 50q72 0 122 -50t50 -122t-50 -122t-122 -50t-122 50t-50 122zM442 942q0 72 50.5 122t121.5 50q72 0 122 -50t50 -122t-50 -122t-122 -50t-122 50t-50 122z" />
<glyph unicode="&#xf8;" horiz-adv-x="1253" d="M63 524q0 115 39 218.5t112 182.5t177.5 125t235.5 46q129 0 227 -33l133 209l150 -96l-125 -197q178 -150 178 -455q0 -121 -40 -221t-113.5 -173t-177 -114t-232.5 -41t-228 33l-133 -209l-149 97l125 198q-86 68 -132.5 175.5t-46.5 254.5zM375 518q0 -102 28 -168 l316 498q-41 14 -92 14q-66 0 -114 -26.5t-79 -72.5t-45 -108.5t-14 -136.5zM535 223q37 -14 92 -14q133 0 192.5 82t59.5 227q0 123 -31 201z" />
<glyph unicode="&#xf9;" horiz-adv-x="1366" d="M47 862v209h430v-600q0 -57 5 -105.5t24.5 -83t56.5 -54t103 -19.5q92 0 157.5 69.5t65.5 198.5v385h-135v209h422v-862h124v-209h-401v57.5t3 60t8 57.5t16 46h-4q-51 -129 -141.5 -187.5t-229.5 -58.5q-182 0 -271.5 102.5t-89.5 272.5v512h-143zM281 1542l145 144 l444 -359l-153 -123z" />
<glyph unicode="&#xfa;" horiz-adv-x="1366" d="M47 862v209h430v-600q0 -57 5 -105.5t24.5 -83t56.5 -54t103 -19.5q92 0 157.5 69.5t65.5 198.5v385h-135v209h422v-862h124v-209h-401v57.5t3 60t8 57.5t16 46h-4q-51 -129 -141.5 -187.5t-229.5 -58.5q-182 0 -271.5 102.5t-89.5 272.5v512h-143zM498 1327l444 359 l145 -144l-436 -338z" />
<glyph unicode="&#xfb;" horiz-adv-x="1366" d="M47 862v209h430v-600q0 -57 5 -105.5t24.5 -83t56.5 -54t103 -19.5q92 0 157.5 69.5t65.5 198.5v385h-135v209h422v-862h124v-209h-401v57.5t3 60t8 57.5t16 46h-4q-51 -129 -141.5 -187.5t-229.5 -58.5q-182 0 -271.5 102.5t-89.5 272.5v512h-143zM205 1372l370 285h177 l370 -285l-166 -135l-292 229l-293 -229z" />
<glyph unicode="&#xfc;" horiz-adv-x="1366" d="M47 862v209h430v-600q0 -57 5 -105.5t24.5 -83t56.5 -54t103 -19.5q92 0 157.5 69.5t65.5 198.5v385h-135v209h422v-862h124v-209h-401v57.5t3 60t8 57.5t16 46h-4q-51 -129 -141.5 -187.5t-229.5 -58.5q-182 0 -271.5 102.5t-89.5 272.5v512h-143zM246 1434q0 76 48 124 t132 48t132 -48.5t48 -123.5q0 -76 -48 -124t-132 -48t-132 48t-48 124zM721 1434q0 76 48 124t132 48t132 -48.5t48 -123.5q0 -76 -48 -124t-132 -48t-132 48t-48 124z" />
<glyph unicode="&#xfd;" horiz-adv-x="1251" d="M20 862v209h533v-209h-111q12 -16 21.5 -34.5t17.5 -39.5l135 -364q16 -43 29.5 -99.5t20.5 -103.5h4q6 47 19 103.5t30 99.5l127 364q8 20 17 39t22 35h-133v209h479v-209h-98l-330 -885q-57 -154 -111.5 -254t-117 -158.5t-138.5 -81t-176 -22.5q-33 0 -74 7.5 t-82 17.5v221q41 -10 82 -17t74 -7q45 0 79 10t63.5 37.5t59.5 76t66 121.5l-409 934h-99zM440 1327l445 359l145 -144l-436 -338z" />
<glyph unicode="&#xfe;" horiz-adv-x="1327" d="M16 1366v209h451v-420q0 -66 -7 -137.5t-16 -149.5h5q49 111 139 169.5t225 58.5q88 0 164 -32t131 -93.5t87 -153.5t32 -211q0 -111 -30 -222.5t-98.5 -202.5t-183 -148.5t-286.5 -57.5q-43 0 -85 3.5t-77 7.5v-291h123v-209h-527v209h117v1671h-164zM461 248 q29 -16 82 -27.5t100 -11.5q78 0 134.5 29.5t92 81t53 117t17.5 136.5q0 55 -11 107.5t-38 92.5t-71 64.5t-111 24.5q-72 0 -119 -23.5t-76 -61.5t-41 -87t-12 -98v-344z" />
<glyph unicode="&#xff;" horiz-adv-x="1251" d="M20 862v209h533v-209h-111q12 -16 21.5 -34.5t17.5 -39.5l135 -364q16 -43 29.5 -99.5t20.5 -103.5h4q6 47 19 103.5t30 99.5l127 364q8 20 17 39t22 35h-133v209h479v-209h-98l-330 -885q-57 -154 -111.5 -254t-117 -158.5t-138.5 -81t-176 -22.5q-33 0 -74 7.5 t-82 17.5v221q41 -10 82 -17t74 -7q45 0 79 10t63.5 37.5t59.5 76t66 121.5l-409 934h-99zM209 1434q0 76 48 124t132 48t132 -48.5t48 -123.5q0 -76 -48 -124t-132 -48t-132 48t-48 124zM684 1434q0 76 48 124t132 48t132 -48.5t48 -123.5q0 -76 -48 -124t-132 -48t-132 48 t-48 124z" />
<glyph unicode="&#x152;" horiz-adv-x="2086" d="M70 707q0 166 52 302t150.5 233t237.5 150.5t315 53.5h70t61 -4q31 -4 67 -6t77 -2h878l13 -422h-246l-12 213h-351v-377h361v-221h-361v-418h357l16 242h246l-16 -451h-885q-82 0 -144 -6q-31 -4 -61.5 -5t-69.5 -1q-195 0 -336 50t-235 144t-139 226.5t-45 298.5z M393 709q0 -252 133 -376t383 -124q53 0 98.5 2t75.5 4v1006q-61 12 -97 14t-73 2q-250 0 -385 -138t-135 -390z" />
<glyph unicode="&#x153;" horiz-adv-x="1896" d="M74 520q0 125 33.5 230.5t101 182.5t168 120t233.5 43q135 0 231.5 -42t155.5 -159q53 96 142.5 148.5t201.5 52.5q106 0 194.5 -34t152 -108.5t99.5 -193.5t36 -289h-719q0 -76 26.5 -128t73.5 -85t111.5 -47t140.5 -14q92 0 170 19.5t156 59.5l-10 -221 q-29 -18 -73 -33.5t-95.5 -25.5t-104.5 -15.5t-102 -5.5q-154 0 -260.5 45.5t-169.5 151.5q-31 -59 -74 -98t-94 -60.5t-105.5 -30t-107.5 -8.5q-127 0 -222.5 40t-160 112t-97 172t-32.5 221zM360 539q0 -61 12.5 -122t43 -110t81 -79.5t126.5 -30.5q111 0 161 62.5 t50 184.5v195q0 111 -47.5 173t-168.5 62q-74 0 -123 -28.5t-78.5 -76.5t-43 -108.5t-13.5 -121.5zM1108 668h428q-2 43 -14.5 83t-39 69.5t-67.5 48t-98 18.5q-104 0 -156.5 -63.5t-52.5 -155.5z" />
<glyph unicode="&#x178;" horiz-adv-x="1517" d="M20 1225v209h570v-209h-115q23 -23 41.5 -45.5t34.5 -46.5l237 -349l256 351q16 23 35 45t41 45h-143v209h520v-209h-113l-475 -654v-362h129v-209h-555v209h127v360l-477 656h-113zM342 1735q0 76 48 124t132 48t132 -48.5t48 -123.5q0 -76 -48 -124t-132 -48t-132 48 t-48 124zM817 1735q0 76 48 124t132 48t132.5 -48.5t48.5 -123.5q0 -76 -48.5 -124t-132.5 -48t-132 48t-48 124z" />
<glyph unicode="&#x2c6;" horiz-adv-x="679" d="M-119 1372l371 285h176l371 -285l-166 -135l-293 229l-293 -229z" />
<glyph unicode="&#x2dc;" horiz-adv-x="679" d="M-80 1376q39 96 111.5 158.5t171.5 62.5q49 0 88 -16t72.5 -36.5t63.5 -37t62 -16.5q37 0 60.5 17.5t62.5 72.5l148 -104q-20 -37 -47 -73t-59.5 -62.5t-72.5 -43t-85 -16.5q-41 0 -81 17.5t-76 39t-69.5 39t-62.5 17.5t-56.5 -22.5t-56.5 -80.5z" />
<glyph unicode="&#x2000;" horiz-adv-x="993" />
<glyph unicode="&#x2001;" horiz-adv-x="1987" />
<glyph unicode="&#x2002;" horiz-adv-x="993" />
<glyph unicode="&#x2003;" horiz-adv-x="1987" />
<glyph unicode="&#x2004;" horiz-adv-x="662" />
<glyph unicode="&#x2005;" horiz-adv-x="496" />
<glyph unicode="&#x2006;" horiz-adv-x="331" />
<glyph unicode="&#x2007;" horiz-adv-x="331" />
<glyph unicode="&#x2008;" horiz-adv-x="248" />
<glyph unicode="&#x2009;" horiz-adv-x="397" />
<glyph unicode="&#x200a;" horiz-adv-x="110" />
<glyph unicode="&#x2010;" horiz-adv-x="872" d="M137 487v246h598v-246h-598z" />
<glyph unicode="&#x2011;" horiz-adv-x="872" d="M137 487v246h598v-246h-598z" />
<glyph unicode="&#x2012;" horiz-adv-x="872" d="M137 487v246h598v-246h-598z" />
<glyph unicode="&#x2013;" horiz-adv-x="1024" d="M0 500v221h1024v-221h-1024z" />
<glyph unicode="&#x2014;" horiz-adv-x="2048" d="M0 500v221h2048v-221h-2048z" />
<glyph unicode="&#x2018;" d="M78 1098q0 158 81 281.5t236 226.5l133 -127q-51 -41 -82.5 -75t-50 -64.5t-24.5 -59.5t-6 -55q0 -39 17 -68t38.5 -54.5t39 -53t17.5 -66.5q0 -78 -50 -123t-124 -45q-55 0 -98 24.5t-71 64.5t-42 90t-14 104z" />
<glyph unicode="&#x2019;" d="M78 942q100 80 132 140.5t32 113.5q0 39 -17.5 67.5t-39 54t-39 53.5t-17.5 67q0 78 50 123t124 45q55 0 98 -25t71 -64.5t42 -91t14 -102.5q0 -158 -80.5 -281.5t-236.5 -226.5z" />
<glyph unicode="&#x201a;" d="M78 -330q100 80 132 140.5t32 113.5q0 39 -17.5 67.5t-39 54.5t-39 53.5t-17.5 66.5q0 78 50 123t124 45q55 0 98 -24.5t71 -64.5t42 -91.5t14 -102.5q0 -158 -80.5 -281.5t-236.5 -226.5z" />
<glyph unicode="&#x201c;" horiz-adv-x="1099" d="M68 1098q0 158 80.5 281.5t236.5 226.5l133 -127q-51 -41 -83 -75t-50 -64.5t-24.5 -59.5t-6.5 -55q0 -39 17.5 -68t39 -54.5t39 -53t17.5 -66.5q0 -78 -50 -123t-124 -45q-55 0 -98 24.5t-71 64.5t-42 90t-14 104zM582 1098q0 158 80.5 281.5t236.5 226.5l133 -127 q-51 -41 -82.5 -75t-50 -64.5t-25 -59.5t-6.5 -55q0 -39 17.5 -68t39 -54.5t39 -53t17.5 -66.5q0 -78 -50 -123t-124 -45q-55 0 -98 24.5t-71 64.5t-42 90t-14 104z" />
<glyph unicode="&#x201d;" horiz-adv-x="1099" d="M68 942q100 80 131.5 140.5t31.5 113.5q0 39 -17 67.5t-38.5 54t-39 53.5t-17.5 67q0 78 50 123t124 45q55 0 98 -25t70.5 -64.5t42 -91t14.5 -102.5q0 -158 -81 -281.5t-236 -226.5zM582 942q100 80 131.5 140.5t31.5 113.5q0 39 -17 67.5t-38.5 54t-39 53.5t-17.5 67 q0 78 50 123t124 45q55 0 98 -25t71 -64.5t42 -91t14 -102.5q0 -158 -81 -281.5t-236 -226.5z" />
<glyph unicode="&#x201e;" horiz-adv-x="1099" d="M68 -330q100 80 131.5 140.5t31.5 113.5q0 39 -17 67.5t-38.5 54.5t-39 53.5t-17.5 66.5q0 78 50 123t124 45q55 0 98 -24.5t70.5 -64.5t42 -91.5t14.5 -102.5q0 -158 -81 -281.5t-236 -226.5zM582 -330q100 80 131.5 140.5t31.5 113.5q0 39 -17 67.5t-38.5 54.5 t-39 53.5t-17.5 66.5q0 78 50 123t124 45q55 0 98 -24.5t71 -64.5t42 -91.5t14 -102.5q0 -158 -81 -281.5t-236 -226.5z" />
<glyph unicode="&#x2022;" horiz-adv-x="1024" d="M154 717q0 74 27.5 139.5t76.5 114.5t114.5 76.5t139.5 27.5t139.5 -27.5t114.5 -76.5t76.5 -114.5t27.5 -139.5t-27.5 -139.5t-76.5 -114.5t-114.5 -77t-139.5 -28t-139.5 28t-114.5 77t-76.5 114.5t-27.5 139.5z" />
<glyph unicode="&#x2026;" horiz-adv-x="2048" d="M150 150q0 92 55 138t137 46t137.5 -46t55.5 -138q0 -78 -50.5 -131.5t-142.5 -53.5t-142 53.5t-50 131.5zM831 150q0 92 55.5 138t137.5 46t137.5 -46t55.5 -138q0 -78 -50.5 -131.5t-142.5 -53.5t-142.5 53.5t-50.5 131.5zM1513 150q0 92 55.5 138t137.5 46t137 -46 t55 -138q0 -78 -50 -131.5t-142 -53.5t-142.5 53.5t-50.5 131.5z" />
<glyph unicode="&#x202f;" horiz-adv-x="397" />
<glyph unicode="&#x2039;" d="M63 530v160l277 324l203 -170l-211 -234l211 -233l-203 -170z" />
<glyph unicode="&#x203a;" d="M63 377l211 233l-211 234l203 170l277 -324v-160l-277 -323z" />
<glyph unicode="&#x205f;" horiz-adv-x="496" />
<glyph unicode="&#x20ac;" horiz-adv-x="1212" d="M18 492l86 180h62l4 116h-152l86 181h95q66 236 226.5 366.5t401.5 130.5q195 0 390 -86v-313h-224v145q-84 31 -166 31q-248 0 -333 -274h634l-86 -181h-581v-116h536l-86 -180h-417q86 -287 354 -287q139 0 354 84v-242q-184 -72 -383 -72q-514 0 -631 517h-170z" />
<glyph unicode="&#x2122;" horiz-adv-x="2027" d="M4 1294v140h680v-140h-248v-712h-184v712h-248zM831 582v852h277l215 -607h4l215 607h277v-852h-185v655h-4l-235 -655h-140l-235 655h-4v-655h-185z" />
<glyph unicode="&#xe000;" horiz-adv-x="1075" d="M0 0v1075h1075v-1075h-1075z" />
</font>
</defs>
</svg>
