<?xml version="1.0" standalone="no"?>
<!DOCTYPE svg PUBLIC "-//W3C//DTD SVG 1.1//EN" "http://www.w3.org/Graphics/SVG/1.1/DTD/svg11.dtd" >
<svg xmlns="http://www.w3.org/2000/svg">
<metadata>
This is a custom SVG webfont generated by Font Squirrel.
Designer    : Adrian Frutiger
Foundry URL : httpwwwadobecomtype
</metadata>
<defs>
<font id="webfontv71it3VB" horiz-adv-x="1402" >
<font-face units-per-em="2048" ascent="1536" descent="-512" />
<missing-glyph horiz-adv-x="757" />
<glyph unicode=" "  horiz-adv-x="757" />
<glyph unicode="&#x09;" horiz-adv-x="757" />
<glyph unicode="&#xa0;" horiz-adv-x="757" />
<glyph unicode="!" horiz-adv-x="872" d="M162 1430h549l-80 -902h-389zM213 0v381h446v-381h-446z" />
<glyph unicode="&#x22;" horiz-adv-x="1138" d="M197 805v625h307v-625h-307zM635 805v625h307v-625h-307z" />
<glyph unicode="#" horiz-adv-x="1228" d="M78 367v258h176l27 186h-140v258h176l50 365h278l-49 -365h137l49 365h279l-49 -365h139v-258h-176l-27 -186h142v-258h-177l-51 -367h-278l51 367h-137l-52 -367h-278l51 367h-141zM532 625h138l26 186h-137z" />
<glyph unicode="$" horiz-adv-x="1290" d="M74 66v315q193 -74 372 -74q233 0 234 107q0 41 -33 67.5t-86 42t-116.5 30.5t-128 43t-118 70t-86 118.5t-32.5 183.5q0 174 117.5 279.5t320.5 127.5v242h270v-242q184 -4 340 -49v-319q-172 61 -335 61q-43 0 -72 -3t-60.5 -14.5t-48 -37t-16.5 -64.5q0 -37 46 -62.5 t114.5 -38.5t149.5 -40t149.5 -61.5t115 -108.5t46.5 -176q0 -176 -120 -291t-309 -152v-266h-270v246q-196 0 -444 66z" />
<glyph unicode="%" horiz-adv-x="1972" d="M51 1034q0 205 103.5 312.5t304 107.5t305 -107.5t104.5 -312.5t-104.5 -318.5t-304.5 -113.5q-199 0 -303.5 113.5t-104.5 318.5zM371 983q0 -10 1 -28.5t3 -31t6 -28.5t10 -27.5t15.5 -20.5t22.5 -14.5t29.5 -5.5t30 5.5t22.5 15.5t16.5 19.5t10.5 26.5t6 28.5t4 32 t1 28.5v29v22v22v27q0 8 -1 27.5t-4 30t-6 27t-11 24.5l-16 18q-9 10 -22.5 14.5t-29.5 4.5q-31 0 -51.5 -17.5t-27.5 -52.5t-8 -56.5t-1 -58.5v-10v-22v-29zM401 -63l926 1556h250l-926 -1556h-250zM1104 407.5q0 204.5 103.5 312t304 107.5t305 -107.5t104.5 -312 t-104.5 -318.5t-305.5 -114q-199 0 -303 114t-104 318.5zM1423 356q0 -10 1 -28.5t3.5 -30.5t6.5 -28.5t10 -28t15 -20.5t22.5 -14t30 -5t29.5 5t22.5 15t16.5 19.5t10 27t6 28.5t4.5 31.5t1.5 28.5v29v23v21v28q0 8 -1.5 27.5t-4.5 29.5t-6 26.5t-10 24.5l-16 19 q-9 10 -22.5 14t-30.5 4q-31 0 -51 -17.5t-27.5 -52t-8.5 -56t-1 -58.5v-10v-23v-29z" />
<glyph unicode="&#x26;" horiz-adv-x="1972" d="M55 397q0 240 291 359q-213 133 -213 315q0 109 53.5 187.5t145.5 119.5t195.5 58.5t228.5 17.5q621 0 620 -313q0 -125 -117.5 -220.5t-261.5 -142.5q98 -66 195 -139q74 76 100 172h512q-53 -240 -266 -442q295 -242 430 -369h-686l-88 90q-193 -115 -500 -115 q-117 0 -221 19.5t-202.5 63.5t-157 131t-58.5 208zM551 403q0 -63 56.5 -98t129.5 -35q92 0 170 64l-276 219q-43 -39 -61.5 -70t-18.5 -80zM604 1098q0 -12 3 -23.5t6 -19.5t11.5 -19.5t14.5 -17.5t18.5 -16.5t17.5 -15.5t20 -14l21 -13l21 -13q16 -10 19 -12 q8 4 33.5 20.5l36 23.5t29.5 22.5t27.5 27.5t15.5 30.5t7 39.5q0 111 -143 110q-68 0 -113 -28.5t-45 -81.5z" />
<glyph unicode="'" horiz-adv-x="647" d="M170 805v625h307v-625h-307z" />
<glyph unicode="(" horiz-adv-x="757" d="M72 631q0 451 278 917h375q-231 -420 -231 -917q0 -504 231 -918h-375q-278 461 -278 918z" />
<glyph unicode=")" horiz-adv-x="757" d="M33 -287q231 420 231 918q0 504 -231 917h375q279 -461 278 -917q0 -451 -278 -918h-375z" />
<glyph unicode="*" horiz-adv-x="1099" d="M82 958l82 302l285 -136l-52 306h310l-48 -306l279 136l80 -302l-289 -51l211 -217l-252 -170l-139 266l-148 -266l-249 170l225 219z" />
<glyph unicode="+" horiz-adv-x="1228" d="M98 350v332h351v350h331v-350h350v-332h-350v-350h-331v350h-351z" />
<glyph unicode="," horiz-adv-x="757" d="M61 -231l127 624h435l-236 -624h-326z" />
<glyph unicode="-" horiz-adv-x="757" d="M92 373v356h574v-356h-574z" />
<glyph unicode="." horiz-adv-x="757" d="M156 0v393h446v-393h-446z" />
<glyph unicode="/" horiz-adv-x="757" d="M-123 -25l641 1479h363l-641 -1479h-363z" />
<glyph unicode="0" horiz-adv-x="1515" d="M47 715q0 328 185.5 533.5t527.5 205.5q326 0 517 -201.5t191 -537.5q0 -340 -184 -540t-524 -200q-338 0 -525.5 202t-187.5 538zM584 715q0 -72 1 -109t5 -95t15 -89t30.5 -64.5t50.5 -48t74 -14.5q41 0 71.5 14.5t49 48t30 64.5t15.5 89t5 95t1 109q0 76 -1 112.5 t-5 96t-15.5 89t-30 62.5t-49 46.5t-71.5 13.5q-43 0 -74 -13.5t-50.5 -46.5t-30.5 -62.5t-15 -89t-5 -96t-1 -112.5z" />
<glyph unicode="1" horiz-adv-x="1064" d="M-27 1071l539 359h440v-1430h-516v928l-317 -230z" />
<glyph unicode="2" horiz-adv-x="1212" d="M41 0v401q250 125 418 234q57 41 94 71.5t69.5 84t32.5 108.5q0 102 -76.5 150.5t-189.5 48.5q-176 0 -319 -62v373q254 45 452 45q127 0 234.5 -22.5t205 -72.5t153.5 -145.5t56 -228.5q0 -94 -38.5 -180t-92 -147.5t-140.5 -124t-152.5 -99.5t-161.5 -86v-4h585v-344 h-1130z" />
<glyph unicode="3" horiz-adv-x="1212" d="M43 35v332q170 -59 360 -60q109 0 169.5 26.5t60.5 102.5q0 139 -234 139q-72 0 -176 -14v313q78 -4 115 -4q51 0 84 2t84 12.5t78.5 37t27.5 69.5q0 143 -209 144q-172 0 -346 -56v320q182 55 471 55q109 0 212.5 -21.5t197.5 -66.5t152.5 -126t58.5 -187 q0 -244 -275 -324v-4q295 -74 295 -330q0 -111 -55 -194.5t-149.5 -132t-202 -71t-223.5 -22.5q-289 1 -496 60z" />
<glyph unicode="4" horiz-adv-x="1441" d="M33 274v480l612 676h512v-803h252v-353h-252v-274h-495v274h-629zM303 606h359v418z" />
<glyph unicode="5" horiz-adv-x="1212" d="M76 37v325q188 -43 301 -43q256 0 256 164q0 174 -283 174q-121 0 -256 -32v805h1010v-332h-539v-221q55 6 160 6q186 0 315 -121t129 -318q0 -133 -56 -228t-154.5 -145.5t-207 -73t-235.5 -22.5q-211 1 -440 62z" />
<glyph unicode="6" horiz-adv-x="1400" d="M33 684q0 369 212 569.5t556 200.5q254 0 436 -39v-330q-4 0 -47 11.5t-52.5 13.5t-48 9t-62 9t-63.5 4.5t-83 2.5q-63 0 -119.5 -14.5t-106 -45.5t-78 -88t-28.5 -137q106 86 321 86q203 0 350.5 -122t147.5 -335q0 -168 -95 -285.5t-233.5 -168t-304.5 -50.5 q-313 0 -507.5 198t-194.5 511zM549 467q0 -80 45 -132t127 -52t129 55t47 141q0 84 -47 135.5t-129 51.5q-84 0 -128 -53.5t-44 -145.5z" />
<glyph unicode="7" horiz-adv-x="1212" d="M25 1036v394h1163v-394l-514 -1036h-615l609 1036h-643z" />
<glyph unicode="8" horiz-adv-x="1400" d="M25 381q0 281 286 346v4q-133 43 -197.5 120t-64.5 212q0 88 39 157.5t102.5 112.5t150.5 71t174 39t183 11q125 0 232.5 -18.5t204 -60.5t151.5 -121.5t55 -190.5q0 -133 -65.5 -210t-192.5 -124v-2q133 -33 213 -119t80 -227q0 -113 -60.5 -196t-163.5 -127t-216 -63.5 t-238 -19.5q-121 0 -232.5 19.5t-215 63.5t-164.5 127t-61 196zM541 459q0 -84 37.5 -136.5t119.5 -52.5t122 53.5t40 139.5q0 80 -40 131t-122 51q-157 0 -157 -186zM545 1026q0 -76 41 -121t112 -47q68 -2 108 45t40 119q0 70 -40 116t-108 46q-72 0 -112.5 -45 t-40.5 -113z" />
<glyph unicode="9" horiz-adv-x="1400" d="M33 950q0 168 95 286t233.5 168t304.5 50q313 0 507.5 -197.5t194.5 -511.5q0 -369 -212 -569.5t-556 -200.5q-254 0 -436 39v330q188 -49 356 -49q139 0 236.5 67.5t95.5 217.5q-106 -86 -322 -86q-203 0 -350 121.5t-147 334.5zM504 950q0 -84 47 -135t129 -51 q84 0 128 53t44 146q0 80 -45 132t-127 52t-129 -55.5t-47 -141.5z" />
<glyph unicode=":" horiz-adv-x="757" d="M156 0v393h446v-393h-446zM156 674v393h446v-393h-446z" />
<glyph unicode=";" horiz-adv-x="757" d="M61 -231l127 624h435l-236 -624h-326zM156 674v393h446v-393h-446z" />
<glyph unicode="&#x3c;" horiz-adv-x="1228" d="M98 365v307l1032 405v-305l-638 -254l638 -254v-305z" />
<glyph unicode="=" horiz-adv-x="1228" d="M98 100v332h1032v-332h-1032zM98 600v332h1032v-332h-1032z" />
<glyph unicode="&#x3e;" horiz-adv-x="1228" d="M98 -41v305l639 254l-639 254v305l1032 -405v-307z" />
<glyph unicode="?" horiz-adv-x="1175" d="M84 1030v348q244 76 446 76q88 0 174.5 -14.5t179.5 -48t150.5 -106.5t57.5 -175q0 -76 -30 -138.5t-75 -102.5l-95 -81l-93 -73q-43 -33 -68.5 -82t-19.5 -105h-410q6 115 36 192t69.5 111.5t77.5 58t64.5 52.5t26.5 72q0 51 -52 67.5t-150 16.5q-139 0 -289 -68zM283 0 v381h446v-381h-446z" />
<glyph unicode="@" horiz-adv-x="1638" d="M49 729q0 330 229.5 527.5t577.5 197.5q328 0 530.5 -182t202.5 -424q0 -115 -45 -211t-110.5 -155.5t-144.5 -100.5t-144.5 -58.5t-112.5 -17.5q-111 0 -117 101h-4q-61 -100 -206 -101q-156 0 -251.5 110.5t-95.5 268.5q0 182 124 317.5t309 135.5q162 0 249 -123 l21 84h194l-92 -455q-10 -45 -10 -74q0 -39 37 -39q74 0 124 78t50 232q0 197 -139.5 293t-374.5 96q-246 0 -400.5 -152.5t-154.5 -386.5q0 -215 157.5 -352t389.5 -137q256 0 418 106h245q-229 -332 -663 -332q-340 0 -566.5 212t-226.5 542zM641 700q0 -57 39 -97 t113 -40q76 0 118.5 47t42.5 111q0 68 -38.5 106.5t-110.5 38.5t-118 -43t-46 -123z" />
<glyph unicode="A" horiz-adv-x="1705" d="M-31 0l502 1430h756l510 -1430h-576l-94 309h-463l-88 -309h-547zM680 653h317l-155 469h-4z" />
<glyph unicode="B" horiz-adv-x="1593" d="M102 0v1430h899q98 0 182.5 -17.5t156 -56.5t112.5 -109.5t41 -169.5q0 -274 -295 -350v-4q143 -18 232.5 -115.5t89.5 -210.5q0 -104 -34 -179t-86 -117t-135 -65.5t-157 -29.5t-176 -6h-830zM618 295h144q86 0 147.5 36t61.5 111q0 145 -205 146h-148v-293zM618 883 h138q201 0 200 137q0 139 -188 139h-150v-276z" />
<glyph unicode="C" horiz-adv-x="1327" d="M39 735q0 231 120 397t310 244t426 78q139 0 389 -45v-377q-168 53 -274 53q-182 0 -296 -94t-114 -264q0 -178 107.5 -274.5t283.5 -96.5q137 0 297 56v-379q-205 -57 -393 -58q-375 0 -615.5 196.5t-240.5 563.5z" />
<glyph unicode="D" horiz-adv-x="1669" d="M102 0v1430h805q164 0 284 -32t217 -110t147.5 -222t50.5 -355q0 -711 -721 -711h-783zM651 356h137q141 0 192.5 89.5t51.5 279.5q0 195 -52 284t-194 89h-135v-742z" />
<glyph unicode="E" d="M84 0v1430h1239v-345h-702v-202h671v-344h-671v-195h716v-344h-1253z" />
<glyph unicode="F" horiz-adv-x="1366" d="M84 0v1430h1225v-345h-676v-231h655v-344h-655v-510h-549z" />
<glyph unicode="G" horiz-adv-x="1593" d="M39 735q0 231 120 397t310 244t426 78q311 0 535 -53v-385q-141 82 -377 82q-209 0 -331 -103.5t-122 -294.5q0 -162 72.5 -265t226.5 -103q84 0 117 12v381h471v-672q-264 -78 -592 -78q-375 0 -615.5 196.5t-240.5 563.5z" />
<glyph unicode="H" horiz-adv-x="1669" d="M102 0v1430h549v-494h367v494h549v-1430h-549v514h-367v-514h-549z" />
<glyph unicode="I" horiz-adv-x="757" d="M104 0v1430h549v-1430h-549z" />
<glyph unicode="J" horiz-adv-x="985" d="M8 27v387q53 -33 123 -33q102 0 152.5 55.5t50.5 143.5v850h549v-979q0 -213 -129 -344.5t-400 -131.5q-153 1 -346 52z" />
<glyph unicode="K" horiz-adv-x="1669" d="M84 0v1430h549v-562h4l342 562h625l-482 -670l527 -760h-656l-356 606h-4v-606h-549z" />
<glyph unicode="L" horiz-adv-x="1366" d="M102 0v1430h549v-1008h674v-422h-1223z" />
<glyph unicode="M" horiz-adv-x="2199" d="M102 0v1430h811l187 -783h4l184 783h809v-1430h-491l-9 1122h-4l-280 -1122h-457l-272 1122h-9l-6 -1122h-467z" />
<glyph unicode="N" horiz-adv-x="1744" d="M92 0v1430h821l265 -1008h4v1008h471v-1430h-807l-279 1036h-4v-1036h-471z" />
<glyph unicode="O" horiz-adv-x="1669" d="M39 715q0 356 208 547.5t584 191.5q379 0 589 -191.5t210 -547.5q0 -360 -210 -550t-588.5 -190t-585.5 189t-207 551zM612 714.5q0 -395.5 219 -395.5q76 0 125.5 37t68.5 108t24.5 121t7.5 130q-6 395 -225.5 395t-219.5 -395.5z" />
<glyph unicode="P" horiz-adv-x="1630" d="M102 0v1430h945q72 0 140 -13.5t140 -49.5t124 -89t86 -141t34 -199q0 -264 -147.5 -395t-379.5 -131h-393v-412h-549zM637 743h121q76 0 129 11.5t94 54.5t41 119q0 102 -71.5 136t-194.5 34h-119v-355z" />
<glyph unicode="Q" horiz-adv-x="1669" d="M39 714.5q0 356.5 208 548t584 191.5q379 0 589 -191.5t210 -547.5q0 -453 -327 -635l307 -369h-598l-203 264q-369 6 -569.5 194.5t-200.5 545zM612 714.5q0 -395.5 219 -395.5q76 0 125.5 37t68.5 108t24.5 121t7.5 130q-6 395 -225.5 395t-219.5 -395.5z" />
<glyph unicode="R" horiz-adv-x="1593" d="M84 0v1430h887q553 0 553 -381q0 -297 -342 -379v-4q156 -27 241 -154q47 -84 80 -269.5t56 -242.5h-572q-6 27 -27.5 194.5t-48.5 217.5q-37 74 -155 73h-123v-485h-549zM608 805h144q51 0 83.5 4t68.5 19.5t53.5 49t17.5 85.5q0 88 -57.5 117.5t-157.5 29.5h-152v-305z " />
<glyph unicode="S" d="M51 991q0 463 735 463q233 0 474 -49v-367q-205 72 -424 72q-236 0 -236 -94q0 -43 55.5 -68.5t139.5 -37t181 -39t181 -67.5t139.5 -130t55.5 -219q0 -137 -62.5 -235.5t-169 -149t-220.5 -73t-245 -22.5q-297 0 -589 68v371q225 -94 491 -95q246 0 246 99 q0 39 -41 62.5t-107.5 39t-147.5 30.5t-161 44t-146.5 74t-107.5 127.5t-41 195.5z" />
<glyph unicode="T" horiz-adv-x="1556" d="M20 1008v422h1516v-422h-483v-1008h-549v1008h-484z" />
<glyph unicode="U" horiz-adv-x="1630" d="M100 561v869h549v-848q0 -238 170 -238q100 0 137 59.5t37 176.5v850h537v-840q0 -330 -185.5 -472.5t-531.5 -142.5q-154 0 -280.5 33t-225 101.5t-153 183t-54.5 268.5z" />
<glyph unicode="V" horiz-adv-x="1630" d="M-29 1430h588l266 -857h4l269 857h561l-529 -1430h-649z" />
<glyph unicode="W" horiz-adv-x="2275" d="M-33 1430h514l174 -914h4l230 914h526l223 -914h4l177 914h489l-344 -1430h-590l-239 934h-5l-227 -934h-602z" />
<glyph unicode="X" horiz-adv-x="1705" d="M-23 0l512 733l-450 697h633l213 -422l229 422h578l-480 -697l517 -733h-637l-269 483l-250 -483h-596z" />
<glyph unicode="Y" horiz-adv-x="1554" d="M-31 1430h596l223 -599h5l225 599h567l-536 -992v-438h-549v438z" />
<glyph unicode="Z" d="M41 0v434l700 627h-675v369h1273v-435l-677 -614h700v-381h-1321z" />
<glyph unicode="[" horiz-adv-x="796" d="M68 -287v1835h663v-295h-270v-1245h270v-295h-663z" />
<glyph unicode="\" horiz-adv-x="757" d="M-123 1454h365l639 -1479h-361z" />
<glyph unicode="]" horiz-adv-x="796" d="M66 8h270v1245h-270v295h663v-1835h-663v295z" />
<glyph unicode="^" horiz-adv-x="1228" d="M109 682l356 748h299l356 -748h-315l-191 403l-190 -403h-315z" />
<glyph unicode="_" horiz-adv-x="1024" d="M0 -154h1024v-102h-1024v102z" />
<glyph unicode="`" horiz-adv-x="569" d="M-170 1536h485l203 -319h-285z" />
<glyph unicode="a" horiz-adv-x="1327" d="M31 289q0 393 551 393q37 0 200 -14q-2 92 -75.5 122.5t-196.5 30.5q-176 0 -356 -90v299q219 61 446 62q100 0 182 -8.5t174.5 -36t153.5 -73.5t102 -129t41 -196v-649h-479v154h-4q-106 -178 -348 -179q-164 0 -277.5 78t-113.5 236zM502 348q0 -102 121 -102 q76 0 117.5 57t41.5 133v33h-51q-66 0 -109.5 -6t-81.5 -35t-38 -80z" />
<glyph unicode="b" horiz-adv-x="1441" d="M102 0v1536h516v-606h5q113 162 321 162q227 0 341 -153t114 -388q0 -121 -25.5 -221.5t-80 -181t-146.5 -127t-217 -46.5q-129 0 -210 50.5t-134 169.5h-4v-195h-480zM604 539q0 -219 127 -220q131 0 131 232q0 221 -127 221q-78 0 -104.5 -61t-26.5 -172z" />
<glyph unicode="c" horiz-adv-x="1138" d="M39 553q0 268 168 403.5t493 135.5q219 0 375 -45v-316q-119 53 -231 53q-119 0 -187.5 -61t-68.5 -178q0 -123 69.5 -192.5t186.5 -69.5q133 0 239 63v-317q-166 -53 -383 -54q-322 0 -491.5 149.5t-169.5 428.5z" />
<glyph unicode="d" horiz-adv-x="1441" d="M43 551q0 236 113.5 388.5t341.5 152.5q209 0 321 -162h4v606h516v-1536h-479v195h-4q-53 -119 -134 -169.5t-210 -50.5q-125 0 -217 46.5t-146.5 127t-80 181t-25.5 221.5zM580 551q0 -231 131 -232q127 0 127 220q0 111 -27 172t-104 61q-127 0 -127 -221z" />
<glyph unicode="e" horiz-adv-x="1290" d="M35 553q0 268 168 403.5t493 135.5q559 0 559 -619v-63h-712q10 -164 284 -164q221 0 351 67v-276q-197 -61 -482 -62q-322 0 -491.5 149.5t-169.5 428.5zM541 635h268q0 211 -129 211q-80 0 -113 -67q-28 -56 -27 -120q0 -12 1 -24z" />
<glyph unicode="f" horiz-adv-x="948" d="M0 760v307h188v90q4 205 128 304.5t333 99.5q176 0 320 -37v-285q-57 14 -113 14q-53 0 -92 -34.5t-39 -96.5v-55h219v-307h-219v-760h-537v760h-188z" />
<glyph unicode="g" horiz-adv-x="1441" d="M43 530q0 246 112.5 404t346.5 158q137 0 236.5 -62.5t121.5 -179.5h4v217h484v-961q0 -115 -32 -210t-104.5 -176.5t-211 -128t-332.5 -46.5q-330 0 -555 66v344q176 -102 401 -102q170 0 254 77.5t84 247.5h-4q-125 -178 -350 -178q-227 0 -341 150.5t-114 379.5z M592 545q0 -213 125 -213q135 0 135 207q0 221 -133 221q-127 0 -127 -215z" />
<glyph unicode="h" d="M94 0v1536h516v-602h4q39 68 126 113t194 45q375 0 375 -351v-741h-516v614q0 33 -2.5 50.5t-9.5 44t-26.5 39t-52.5 12.5q-43 0 -64.5 -26.5t-24.5 -51.5t-3 -68v-614h-516z" />
<glyph unicode="i" horiz-adv-x="720" d="M102 0v1067h516v-1067h-516zM102 1180v356h516v-356h-516z" />
<glyph unicode="j" horiz-adv-x="720" d="M-90 -121q37 -14 84 -14q55 0 81.5 39t26.5 94v1069h516v-1116q0 -203 -107.5 -304.5t-287.5 -101.5q-170 0 -313 33v301zM102 1180v356h516v-356h-516z" />
<glyph unicode="k" horiz-adv-x="1517" d="M102 0v1536h516v-893h5l295 424h583l-360 -471l375 -596h-603l-290 518h-5v-518h-516z" />
<glyph unicode="l" horiz-adv-x="720" d="M102 0v1536h516v-1536h-516z" />
<glyph unicode="m" horiz-adv-x="2088" d="M88 0v1067h487v-184h5q86 209 364 209q117 0 211 -46.5t123 -136.5h4q25 86 129.5 134.5t212.5 48.5q78 0 139.5 -15.5t100.5 -37t66.5 -61.5t41 -72t20.5 -88t8 -88t1 -91v-639h-516v614q0 43 -3 68t-24.5 51.5t-64.5 26.5q-33 0 -52.5 -12.5t-26.5 -39t-9 -44t-2 -50.5 v-614h-517v614q0 33 -2 50.5t-9 44t-26.5 39t-52.5 12.5q-43 0 -64.5 -26.5t-24.5 -51.5t-3 -68v-614h-516z" />
<glyph unicode="n" d="M94 0v1067h488v-184h4q43 106 137 157.5t211 51.5q375 0 375 -351v-741h-516v614q0 33 -2.5 50.5t-9.5 44t-26.5 39t-52.5 12.5q-43 0 -64.5 -26.5t-24.5 -51.5t-3 -68v-614h-516z" />
<glyph unicode="o" d="M39 553q0 268 168 403.5t493.5 135.5t494.5 -136.5t169 -402.5q0 -279 -171 -428.5t-492.5 -149.5t-491.5 149.5t-170 428.5zM588 553q0 -135 21.5 -202.5t91 -67.5t92 67.5t22.5 202.5q0 113 -22.5 172t-92 59t-91 -59t-21.5 -172z" />
<glyph unicode="p" horiz-adv-x="1441" d="M102 -430v1497h480v-195h4q53 119 134 169.5t210 50.5q125 0 217 -46.5t146.5 -127t80 -181t25.5 -221.5q0 -236 -114 -388.5t-341 -152.5q-209 0 -321 162h-5v-567h-516zM604 528q0 -111 26.5 -172t104.5 -61q127 0 127 221q0 231 -131 232q-127 -1 -127 -220z" />
<glyph unicode="q" horiz-adv-x="1441" d="M43 516q0 121 25.5 221.5t80 181t146.5 127t217 46.5q129 0 210 -50.5t134 -169.5h4v195h479v-1497h-516v567h-4q-113 -162 -321 -162q-227 0 -341 152.5t-114 388.5zM580 516q0 -221 127 -221q78 0 104.5 61.5t26.5 171.5q0 219 -127 220q-131 -1 -131 -232z" />
<glyph unicode="r" horiz-adv-x="1024" d="M102 0v1067h484v-242h4q109 266 325 267q49 0 84 -11v-428q-39 16 -116 17q-109 0 -187 -83t-78 -200v-387h-516z" />
<glyph unicode="s" horiz-adv-x="1138" d="M35 731q0 109 55 184.5t151.5 111.5t189.5 50.5t204 14.5q170 0 385 -45v-287q-180 61 -336 61q-178 0 -178 -73q0 -29 61.5 -43.5t149.5 -26.5t176 -38t149.5 -95.5t61.5 -182.5q0 -109 -56.5 -188.5t-149.5 -120.5t-189.5 -59.5t-196.5 -18.5q-205 0 -446 62v305 q160 -96 378 -96q188 0 189 69q0 35 -61.5 53.5t-149.5 33t-176 42t-149.5 100t-61.5 187.5z" />
<glyph unicode="t" horiz-adv-x="948" d="M0 760v307h182v246l516 157v-403h234v-307h-234v-301q0 -66 31 -103t82 -37q66 0 121 19v-307q-190 -55 -354 -56q-201 0 -298.5 102.5t-97.5 313.5v369h-182z" />
<glyph unicode="u" d="M94 326v741h516v-614q0 -33 2 -50.5t9.5 -44t27 -39t51.5 -12.5q43 0 64.5 26.5t25 51.5t3.5 68v614h516v-1067h-488v184h-4q-43 -106 -137 -157.5t-211 -51.5q-375 1 -375 351z" />
<glyph unicode="v" horiz-adv-x="1290" d="M-6 1067h528l133 -700h4l134 700h503l-323 -1069h-662z" />
<glyph unicode="w" horiz-adv-x="2048" d="M-12 1067h506l122 -698h5l110 698h621l118 -698h5l114 698h471l-260 -1067h-643l-127 723h-4l-131 -723h-647z" />
<glyph unicode="x" horiz-adv-x="1366" d="M-25 0l351 573l-326 494h543l143 -319l143 319h506l-297 -485l353 -582h-547l-168 344l-174 -344h-527z" />
<glyph unicode="y" horiz-adv-x="1251" d="M-27 1067h535l133 -655h4l127 655h496l-283 -893q-27 -90 -44 -142t-49 -128t-60.5 -120t-73.5 -95t-97.5 -79t-123 -46.5t-154.5 -18.5q-113 0 -338 37v303q68 -20 154 -20q74 0 117.5 28.5t43.5 71.5q0 35 -19 94.5t-51 139.5t-44 120z" />
<glyph unicode="z" horiz-adv-x="1251" d="M70 0v438l538 318v4h-520v307h1079v-428l-510 -328v-4h525v-307h-1112z" />
<glyph unicode="{" horiz-adv-x="757" d="M33 512v238q150 0 149 131v385q0 133 88 207.5t185 74.5h270v-225h-31q-39 0 -64.5 -11.5t-36.5 -31.5t-14.5 -37.5t-3.5 -44.5v-360q-2 -197 -270 -205v-4q268 -8 270 -205v-361q0 -27 3.5 -44t14.5 -37.5t36.5 -31.5t64.5 -11h31v-226h-270q-96 0 -184.5 75t-88.5 208 v385q1 131 -149 131z" />
<glyph unicode="|" horiz-adv-x="454" d="M55 -512v2048h344v-2048h-344z" />
<glyph unicode="}" horiz-adv-x="757" d="M33 -61h30q39 0 65 11t37 31.5t14 38t3 43.5v361q2 197 271 205v4q-268 8 -271 205v360q0 27 -3 44.5t-14 37.5t-37 31.5t-65 11.5h-30v225h270q96 0 184 -74.5t88 -207.5v-385q0 -131 150 -131v-238q-150 0 -150 -131v-385q0 -133 -88 -208t-184 -75h-270v226z" />
<glyph unicode="~" horiz-adv-x="1228" d="M141 553q94 195 256 195q82 0 235.5 -70t201.5 -70q94 0 180 140l73 -271q-35 -49 -50 -68.5t-50 -55.5t-72.5 -50t-83.5 -14q-78 0 -213 69.5t-231 69.5q-113 0 -172 -139z" />
<glyph unicode="&#xa1;" horiz-adv-x="872" d="M162 -362l80 901h389l80 -901h-549zM213 686v381h446v-381h-446z" />
<glyph unicode="&#xa2;" horiz-adv-x="1175" d="M57 588q0 238 131 372t387 162v252h246v-246q160 -10 273 -43v-317q-123 55 -232 55q-119 0 -187.5 -62.5t-68.5 -180.5q0 -125 69.5 -196t186.5 -71q131 0 240 66v-320q-133 -43 -281 -49v-256h-246v262q-254 31 -386 177.5t-132 394.5z" />
<glyph unicode="&#xa3;" horiz-adv-x="1327" d="M86 0v319h172v254h-172v295h172v103q0 133 49 230t134 150.5t185.5 78t219.5 24.5q186 0 393 -45v-315q-156 41 -262 41q-209 0 -223 -191v-76h313v-295h-313v-254h487v-319h-1155z" />
<glyph unicode="&#xa4;" horiz-adv-x="1228" d="M84 311l106 107q-98 133 -98 299t98 299l-106 106l125 125l106 -106q137 94 299 94q164 0 299 -94l107 106l125 -125l-107 -106q98 -133 99 -299q0 -168 -101 -297l109 -109l-125 -125l-109 109q-131 -96 -296.5 -96t-299.5 94l-106 -107zM399 716.5q0 -102.5 60.5 -169 t155 -66.5t154.5 66.5t60 169t-60 169t-154.5 66.5t-155 -66.5t-60.5 -169z" />
<glyph unicode="&#xa5;" horiz-adv-x="1515" d="M25 1430h518l213 -558h4l213 558h518l-350 -680h196v-213h-307l-31 -58v-73h338v-213h-338v-193h-516v193h-325v213h325v73l-28 58h-297v213h196z" />
<glyph unicode="&#xa6;" horiz-adv-x="454" d="M55 358h344v-716h-344v716zM55 666v716h344v-716h-344z" />
<glyph unicode="&#xa7;" horiz-adv-x="1290" d="M59 561q0 98 57.5 174t151.5 113q-154 78 -153 248q0 358 544 358q209 0 404 -45v-295q-162 45 -307 45q-41 0 -60.5 -1t-50.5 -7t-45 -23.5t-14 -46.5q0 -35 48 -61.5t119.5 -45t154.5 -50t155 -71.5t120 -115.5t48 -176.5q0 -174 -187 -278q141 -113 142 -256 q0 -92 -38 -162t-94.5 -110t-136 -64.5t-151.5 -32.5t-152 -8q-270 0 -471 53v301q168 -59 346 -59q49 0 77 1t69 8t60.5 24.5t19.5 46.5q0 35 -48.5 62.5t-122 47t-157.5 53t-157.5 75.5t-122 119t-48.5 179zM440 610q0 -55 63.5 -97t168 -77t121.5 -43q57 66 57 113 q0 33 -22.5 62.5t-66.5 53t-81 39t-92 35.5l-78 29q-70 -45 -70 -115z" />
<glyph unicode="&#xa8;" horiz-adv-x="569" d="M-170 1217v319h369v-319h-369zM371 1217v319h368v-319h-368z" />
<glyph unicode="&#xa9;" horiz-adv-x="1638" d="M80 715q0 305 217 522t522 217t522.5 -217t217.5 -522t-217.5 -522.5t-522.5 -217.5t-522 217.5t-217 522.5zM371 715q0 -215 120.5 -354.5t327.5 -139.5q201 0 325 140.5t124 353.5t-124 353t-325 140q-207 0 -327.5 -139t-120.5 -354zM444 733q0 160 110 275.5 t282 115.5q131 0 225 -83t119 -238h-209q-33 96 -113 96q-76 0 -116 -50t-40 -132t42 -135.5t110 -53.5q35 0 73 30t44 79h217q-23 -160 -121 -247t-227 -87q-172 0 -284 123t-112 307z" />
<glyph unicode="&#xaa;" horiz-adv-x="862" d="M23 975q0 117 103 167t247 50q61 0 147 -6q-2 96 -174 96q-127 0 -231 -49v178q109 43 309 43q416 0 416 -287v-372h-320v73h-4q-76 -90 -246 -90q-104 0 -175.5 52.5t-71.5 144.5zM342 1001.5q0 -67.5 78 -67.5q47 0 73.5 36t26.5 77v22h-31q-147 0 -147 -67.5z" />
<glyph unicode="&#xab;" horiz-adv-x="1327" d="M51 553l234 442h393l-184 -442l184 -442h-393zM606 553l234 442h393l-184 -442l184 -442h-393z" />
<glyph unicode="&#xac;" horiz-adv-x="1228" d="M98 600v332h1032v-684h-331v352h-701z" />
<glyph unicode="&#xad;" horiz-adv-x="757" d="M92 373v356h574v-356h-574z" />
<glyph unicode="&#xae;" horiz-adv-x="1638" d="M80 715q0 305 217 522t522 217t522.5 -217t217.5 -522t-217.5 -522.5t-522.5 -217.5t-522 217.5t-217 522.5zM371 715q0 -215 120.5 -354.5t327.5 -139.5q201 0 325 140.5t124 353.5t-124 353t-325 140q-207 0 -327.5 -139t-120.5 -354zM539 346v741h276q164 0 244 -54 t80 -189q0 -211 -187 -221l162 -277h-231l-133 232h-5v-232h-206zM745 762h103q96 0 96 74q0 29 -22.5 45t-47 19t-67.5 3h-62v-141z" />
<glyph unicode="&#xaf;" horiz-adv-x="569" d="M-139 1280v213h848v-213h-848z" />
<glyph unicode="&#xb0;" horiz-adv-x="819" d="M82 1126.5q0 135.5 96 231.5t231.5 96t231.5 -96t96 -231.5t-96 -231.5t-231.5 -96t-231.5 96t-96 231.5zM266 1126.5q0 -59.5 42 -101.5t101.5 -42t101.5 42t42 101.5t-42 101.5t-101.5 42t-101.5 -42t-42 -101.5z" />
<glyph unicode="&#xb1;" horiz-adv-x="1228" d="M98 0v332h1032v-332h-1032zM98 535v331h351v166h331v-166h350v-331h-350v-166h-331v166h-351z" />
<glyph unicode="&#xb2;" horiz-adv-x="788" d="M20 578v251q6 2 33 15l47 21l55 26q34 16 60 31l58 32q32 18 54.5 35t43 35t31 35.5t10.5 34.5q0 57 -48.5 85.5t-111.5 28.5q-104 0 -209 -32v251q160 27 328 27q170 0 289.5 -66.5t119.5 -222.5q0 -63 -33.5 -118.5t-95 -99.5t-102.5 -67.5t-100 -52.5v-4h311v-245 h-740z" />
<glyph unicode="&#xb3;" horiz-adv-x="788" d="M25 600v211q111 -37 223 -37q147 0 147 66q0 68 -149 67q-49 0 -115 -10v199q53 -4 76 -4q176 0 176 82q0 72 -135 71q-98 0 -211 -35v217q117 27 338 27q389 0 389 -242q0 -150 -184 -194v-4q197 -41 196 -195q0 -94 -64.5 -153.5t-147.5 -80t-185 -20.5q-221 0 -354 35 z" />
<glyph unicode="&#xb4;" horiz-adv-x="569" d="M51 1217l203 319h485l-403 -319h-285z" />
<glyph unicode="&#xb5;" d="M94 -455v1522h516v-614q0 -33 2 -50.5t9.5 -44t27 -39t51.5 -12.5q43 0 64.5 26.5t25 51.5t3.5 68v614h516v-1067h-488v184h-4q-20 -61 -76.5 -114.5t-126.5 -69.5v-455h-520z" />
<glyph unicode="&#xb6;" horiz-adv-x="1269" d="M37 1065q0 205 132 285t372 80h647v-1756h-283v1543h-133v-1543h-283v1041q-217 0 -334.5 92t-117.5 258z" />
<glyph unicode="&#xb7;" horiz-adv-x="757" d="M131 477.5q0 102.5 72.5 175t175 72.5t175.5 -72.5t73 -175t-73 -175.5t-175.5 -73t-175 73t-72.5 175.5z" />
<glyph unicode="&#xb8;" horiz-adv-x="569" d="M27 -430l55 127q123 -49 190 -49q35 0 71 14t36 37q0 27 -28.5 42t-63.5 15q-39 0 -76 -12l-68 74l113 184h184l-84 -137q37 6 74 6q84 0 139.5 -42t55.5 -126q0 -94 -92.5 -142t-213.5 -48q-163 0 -292 57z" />
<glyph unicode="&#xb9;" horiz-adv-x="692" d="M-37 1223l350 219h326v-864h-369v544l-204 -147z" />
<glyph unicode="&#xba;" horiz-adv-x="911" d="M14 1116q0 162 114 250t331 88q215 0 326.5 -88t111.5 -250q0 -164 -112.5 -251t-329.5 -87q-215 0 -328 88t-113 250zM383 1116q0 -59 13.5 -92t58.5 -33q74 0 73 125q0 61 -15 93t-58 32q-45 0 -58.5 -31t-13.5 -94z" />
<glyph unicode="&#xbb;" horiz-adv-x="1327" d="M94 111l185 442l-185 442h393l234 -442l-234 -442h-393zM649 111l185 442l-185 442h393l234 -442l-234 -442h-393z" />
<glyph unicode="&#xbc;" horiz-adv-x="2275" d="M102 1223l351 219h325v-864h-368v544l-205 -147zM543 -63l925 1556h250l-925 -1556h-250zM1253 162v305l412 397h342v-485h154v-217h-154v-162h-344v162h-410zM1438 375h225v243z" />
<glyph unicode="&#xbd;" horiz-adv-x="2275" d="M82 1223l350 219h326v-864h-369v544l-205 -147zM504 -63l926 1556h249l-925 -1556h-250zM1436 0v252q6 2 32 14l48 22l54 25q34 16 60 31l59 33q32 18 54 34.5t42.5 35t31 36t10.5 33.5q0 57 -48 86t-112 29q-104 0 -209 -33v252q160 27 328 27q170 0 289.5 -67 t119.5 -222q0 -63 -33.5 -118.5t-95 -99.5t-102.5 -67.5t-100 -52.5v-4h311v-246h-739z" />
<glyph unicode="&#xbe;" horiz-adv-x="2275" d="M92 600v211q111 -37 223 -37q147 0 148 66q0 68 -150 67q-49 0 -114 -10v199q53 -4 75 -4q176 0 177 82q0 72 -136 71q-98 0 -211 -35v217q117 27 338 27q389 0 389 -242q0 -150 -184 -194v-4q197 -41 197 -195q0 -94 -64.5 -153.5t-147.5 -80t-186 -20.5q-221 0 -354 35 zM524 -63l926 1556h250l-926 -1556h-250zM1274 166v301l412 399h342v-487h153v-213h-153v-166h-345v166h-409zM1458 379h225v242z" />
<glyph unicode="&#xbf;" horiz-adv-x="1175" d="M84 -45q0 76 29.5 138.5t74.5 102.5l96 80l93 74q43 33 68.5 82t19.5 105h409q-6 -115 -35.5 -192t-69.5 -111.5t-78 -58t-64.5 -52.5t-26.5 -72q0 -51 52.5 -67.5t150.5 -16.5q139 0 289 68v-348q-244 -76 -447 -76q-88 0 -174 14.5t-179 48t-150.5 106.5t-57.5 175z M446 686v381h447v-381h-447z" />
<glyph unicode="&#xc0;" horiz-adv-x="1705" d="M-31 0l502 1430h756l510 -1430h-576l-94 309h-463l-88 -309h-547zM399 1858h486l202 -320h-284zM680 653h317l-155 469h-4z" />
<glyph unicode="&#xc1;" horiz-adv-x="1705" d="M-31 0l502 1430h756l510 -1430h-576l-94 309h-463l-88 -309h-547zM621 1538l202 320h486l-404 -320h-284zM680 653h317l-155 469h-4z" />
<glyph unicode="&#xc2;" horiz-adv-x="1705" d="M-31 0l502 1430h756l510 -1430h-576l-94 309h-463l-88 -309h-547zM416 1538l235 320h408l233 -320h-297l-145 193l-135 -193h-299zM680 653h317l-155 469h-4z" />
<glyph unicode="&#xc3;" horiz-adv-x="1705" d="M-31 0l502 1430h756l510 -1430h-576l-94 309h-463l-88 -309h-547zM403 1538q14 141 78 230.5t176 89.5q84 0 179 -29q158 -45 182 -45q74 0 92 74h195q-8 -135 -84 -227.5t-193 -92.5q-88 0 -199 41q-92 35 -141 35q-35 0 -62.5 -23.5t-27.5 -52.5h-195zM680 653h317 l-155 469h-4z" />
<glyph unicode="&#xc4;" horiz-adv-x="1705" d="M-31 0l502 1430h756l510 -1430h-576l-94 309h-463l-88 -309h-547zM399 1538v320h369v-320h-369zM680 653h317l-155 469h-4zM940 1538v320h369v-320h-369z" />
<glyph unicode="&#xc5;" horiz-adv-x="1705" d="M-31 0l502 1430h756l510 -1430h-576l-94 309h-463l-88 -309h-547zM612 1726.5q0 100.5 71 171t171 70.5q98 0 170 -70.5t72 -171t-72 -171t-170 -70.5q-100 0 -171 70.5t-71 171zM680 653h317l-155 469h-4zM756 1726.5q0 -40.5 27.5 -69.5t70.5 -29q41 0 69.5 29 t28.5 69.5t-28.5 69.5t-69.5 29q-43 0 -70.5 -29t-27.5 -69.5z" />
<glyph unicode="&#xc6;" horiz-adv-x="2199" d="M-31 0l506 1430h1645v-345h-795l66 -202h692v-344h-586l70 -195h567v-344h-985l-88 309h-461l-92 -309h-539zM676 653h319l-153 457h-4z" />
<glyph unicode="&#xc7;" horiz-adv-x="1327" d="M39 735q0 231 120 397t310 244t426 78q139 0 389 -45v-377q-168 53 -274 53q-182 0 -296 -94t-114 -264q0 -178 107.5 -274.5t283.5 -96.5q137 0 297 56v-379q-152 -45 -319 -53l-70 -115q37 6 74 6q84 0 139 -42t55 -126q0 -94 -92 -142t-213 -48q-164 0 -293 57l56 127 q123 -49 190 -49q35 0 71 14t36 37q0 27 -29 42t-64 15q-39 0 -75 -12l-68 74l100 164q-334 27 -540.5 220t-206.5 533z" />
<glyph unicode="&#xc8;" d="M84 0v1430h1239v-345h-702v-202h671v-344h-671v-195h716v-344h-1253zM248 1858h485l203 -320h-285z" />
<glyph unicode="&#xc9;" d="M84 0v1430h1239v-345h-702v-202h671v-344h-671v-195h716v-344h-1253zM469 1538l203 320h485l-403 -320h-285z" />
<glyph unicode="&#xca;" d="M84 0v1430h1239v-345h-702v-202h671v-344h-671v-195h716v-344h-1253zM264 1538l236 320h407l234 -320h-297l-146 193l-135 -193h-299z" />
<glyph unicode="&#xcb;" d="M84 0v1430h1239v-345h-702v-202h671v-344h-671v-195h716v-344h-1253zM248 1538v320h368v-320h-368zM788 1538v320h369v-320h-369z" />
<glyph unicode="&#xcc;" horiz-adv-x="757" d="M-76 1858h486l202 -320h-284zM104 0v1430h549v-1430h-549z" />
<glyph unicode="&#xcd;" horiz-adv-x="757" d="M104 0v1430h549v-1430h-549zM145 1538l203 320h486l-404 -320h-285z" />
<glyph unicode="&#xce;" horiz-adv-x="757" d="M-59 1538l235 320h408l233 -320h-297l-145 193l-135 -193h-299zM104 0v1430h549v-1430h-549z" />
<glyph unicode="&#xcf;" horiz-adv-x="757" d="M-76 1538v320h369v-320h-369zM104 0v1430h549v-1430h-549zM465 1538v320h369v-320h-369z" />
<glyph unicode="&#xd0;" horiz-adv-x="1669" d="M-6 625v258h108v547h805q164 0 284 -32t217 -110t147.5 -222t50.5 -355q0 -711 -721 -711h-783v625h-108zM651 356h137q141 0 192.5 89.5t51.5 279.5q0 195 -52 284t-194 89h-135v-215h183v-258h-183v-269z" />
<glyph unicode="&#xd1;" horiz-adv-x="1744" d="M92 0v1430h821l265 -1008h4v1008h471v-1430h-807l-279 1036h-4v-1036h-471zM422 1538q14 141 77.5 230.5t176.5 89.5q86 0 178 -29q158 -45 182 -45q74 0 92 74h195q-8 -135 -84 -227.5t-192 -92.5q-88 0 -199 41q-92 35 -141 35q-35 0 -63 -23.5t-28 -52.5h-194z" />
<glyph unicode="&#xd2;" horiz-adv-x="1669" d="M39 715q0 356 208 547.5t584 191.5q379 0 589 -191.5t210 -547.5q0 -360 -210 -550t-588.5 -190t-585.5 189t-207 551zM381 1858h485l203 -320h-285zM612 714.5q0 -395.5 219 -395.5q76 0 125.5 37t68.5 108t24.5 121t7.5 130q-6 395 -225.5 395t-219.5 -395.5z" />
<glyph unicode="&#xd3;" horiz-adv-x="1669" d="M39 715q0 356 208 547.5t584 191.5q379 0 589 -191.5t210 -547.5q0 -360 -210 -550t-588.5 -190t-585.5 189t-207 551zM602 1538l203 320h485l-403 -320h-285zM612 714.5q0 -395.5 219 -395.5q76 0 125.5 37t68.5 108t24.5 121t7.5 130q-6 395 -225.5 395t-219.5 -395.5z " />
<glyph unicode="&#xd4;" horiz-adv-x="1669" d="M39 715q0 356 208 547.5t584 191.5q379 0 589 -191.5t210 -547.5q0 -360 -210 -550t-588.5 -190t-585.5 189t-207 551zM397 1538l236 320h407l234 -320h-297l-146 193l-135 -193h-299zM612 714.5q0 -395.5 219 -395.5q76 0 125.5 37t68.5 108t24.5 121t7.5 130 q-6 395 -225.5 395t-219.5 -395.5z" />
<glyph unicode="&#xd5;" horiz-adv-x="1669" d="M39 715q0 356 208 547.5t584 191.5q379 0 589 -191.5t210 -547.5q0 -360 -210 -550t-588.5 -190t-585.5 189t-207 551zM385 1538q14 141 77.5 230.5t176.5 89.5q86 0 178 -29q158 -45 182 -45q74 0 93 74h194q-8 -135 -84 -227.5t-192 -92.5q-88 0 -199 41 q-92 35 -141 35q-35 0 -62.5 -23.5t-27.5 -52.5h-195zM612 714.5q0 -395.5 219 -395.5q76 0 125.5 37t68.5 108t24.5 121t7.5 130q-6 395 -225.5 395t-219.5 -395.5z" />
<glyph unicode="&#xd6;" horiz-adv-x="1669" d="M39 715q0 356 208 547.5t584 191.5q379 0 589 -191.5t210 -547.5q0 -360 -210 -550t-588.5 -190t-585.5 189t-207 551zM381 1538v320h369v-320h-369zM612 714.5q0 -395.5 219 -395.5q76 0 125.5 37t68.5 108t24.5 121t7.5 130q-6 395 -225.5 395t-219.5 -395.5zM922 1538 v320h368v-320h-368z" />
<glyph unicode="&#xd7;" horiz-adv-x="1228" d="M100 803l230 229l286 -287l285 287l227 -229l-284 -287l284 -283l-227 -233l-287 289l-284 -289l-228 231l285 285z" />
<glyph unicode="&#xd8;" horiz-adv-x="1669" d="M39 715q0 356 208 547.5t584 191.5q229 0 396 -70l207 254l180 -143l-191 -235q207 -195 207 -545q0 -360 -210 -550t-589 -190q-231 0 -395 70l-207 -254l-180 143l191 236q-201 191 -201 545zM612 715q0 -51 4 -82l347 426q-51 51 -132 51q-219 0 -219 -395zM702 373 q47 -53 129 -54q76 0 125.5 37t68.5 108t24.5 121t7.5 130q0 23 -4 88z" />
<glyph unicode="&#xd9;" horiz-adv-x="1630" d="M100 561v869h549v-848q0 -238 170 -238q100 0 137 59.5t37 176.5v850h537v-840q0 -330 -185.5 -472.5t-531.5 -142.5q-154 0 -280.5 33t-225 101.5t-153 183t-54.5 268.5zM360 1858h486l203 -320h-285z" />
<glyph unicode="&#xda;" horiz-adv-x="1630" d="M100 561v869h549v-848q0 -238 170 -238q100 0 137 59.5t37 176.5v850h537v-840q0 -330 -185.5 -472.5t-531.5 -142.5q-154 0 -280.5 33t-225 101.5t-153 183t-54.5 268.5zM582 1538l202 320h486l-404 -320h-284z" />
<glyph unicode="&#xdb;" horiz-adv-x="1630" d="M100 561v869h549v-848q0 -238 170 -238q100 0 137 59.5t37 176.5v850h537v-840q0 -330 -185.5 -472.5t-531.5 -142.5q-154 0 -280.5 33t-225 101.5t-153 183t-54.5 268.5zM377 1538l235 320h408l233 -320h-297l-145 193l-135 -193h-299z" />
<glyph unicode="&#xdc;" horiz-adv-x="1630" d="M100 561v869h549v-848q0 -238 170 -238q100 0 137 59.5t37 176.5v850h537v-840q0 -330 -185.5 -472.5t-531.5 -142.5q-154 0 -280.5 33t-225 101.5t-153 183t-54.5 268.5zM360 1538v320h369v-320h-369zM901 1538v320h369v-320h-369z" />
<glyph unicode="&#xdd;" horiz-adv-x="1554" d="M-31 1430h596l223 -599h5l225 599h567l-536 -992v-438h-549v438zM545 1538l203 320h485l-404 -320h-284z" />
<glyph unicode="&#xde;" horiz-adv-x="1630" d="M102 0v1430h549v-132h396q72 0 140 -13t140 -49t124 -89t86 -141t34 -199q0 -264 -147.5 -395t-379.5 -131h-393v-281h-549zM637 612h121q76 0 129 11.5t94 54.5t41 119q0 102 -71.5 136t-194.5 34h-119v-355z" />
<glyph unicode="&#xdf;" horiz-adv-x="1517" d="M90 0v1032q0 106 37 198.5t110.5 168.5t201.5 119t296 43q666 0 666 -433q0 -139 -65.5 -223t-207.5 -121v-4q162 -37 256.5 -130t94.5 -238q0 -215 -134.5 -319.5t-347.5 -104.5q-100 0 -278 39v278q37 -23 110 -22q63 0 108.5 48t45.5 140q0 145 -264 145v283 q96 4 141 48t45 143q0 176 -149 176q-53 0 -86 -24.5t-45.5 -73t-15.5 -81t-3 -88.5v-999h-516z" />
<glyph unicode="&#xe0;" horiz-adv-x="1327" d="M31 289q0 393 551 393q37 0 200 -14q-2 92 -75.5 122.5t-196.5 30.5q-176 0 -356 -90v299q219 61 446 62q100 0 182 -8.5t174.5 -36t153.5 -73.5t102 -129t41 -196v-649h-479v154h-4q-106 -178 -348 -179q-164 0 -277.5 78t-113.5 236zM209 1536h485l203 -319h-285z M502 348q0 -102 121 -102q76 0 117.5 57t41.5 133v33h-51q-66 0 -109.5 -6t-81.5 -35t-38 -80z" />
<glyph unicode="&#xe1;" horiz-adv-x="1327" d="M31 289q0 393 551 393q37 0 200 -14q-2 92 -75.5 122.5t-196.5 30.5q-176 0 -356 -90v299q219 61 446 62q100 0 182 -8.5t174.5 -36t153.5 -73.5t102 -129t41 -196v-649h-479v154h-4q-106 -178 -348 -179q-164 0 -277.5 78t-113.5 236zM430 1217l203 319h485l-403 -319 h-285zM502 348q0 -102 121 -102q76 0 117.5 57t41.5 133v33h-51q-66 0 -109.5 -6t-81.5 -35t-38 -80z" />
<glyph unicode="&#xe2;" horiz-adv-x="1327" d="M31 289q0 393 551 393q37 0 200 -14q-2 92 -75.5 122.5t-196.5 30.5q-176 0 -356 -90v299q219 61 446 62q100 0 182 -8.5t174.5 -36t153.5 -73.5t102 -129t41 -196v-649h-479v154h-4q-106 -178 -348 -179q-164 0 -277.5 78t-113.5 236zM225 1217l236 319h407l234 -319 h-297l-146 192l-135 -192h-299zM502 348q0 -102 121 -102q76 0 117.5 57t41.5 133v33h-51q-66 0 -109.5 -6t-81.5 -35t-38 -80z" />
<glyph unicode="&#xe3;" horiz-adv-x="1327" d="M31 289q0 393 551 393q37 0 200 -14q-2 92 -75.5 122.5t-196.5 30.5q-176 0 -356 -90v299q219 61 446 62q100 0 182 -8.5t174.5 -36t153.5 -73.5t102 -129t41 -196v-649h-479v154h-4q-106 -178 -348 -179q-164 0 -277.5 78t-113.5 236zM213 1217q14 141 77.5 230 t176.5 89q86 0 178 -29q158 -45 182 -45q74 0 93 74h194q-8 -135 -84 -227t-192 -92q-88 0 -199 40q-92 35 -141 35q-35 0 -62.5 -23.5t-27.5 -51.5h-195zM502 348q0 -102 121 -102q76 0 117.5 57t41.5 133v33h-51q-66 0 -109.5 -6t-81.5 -35t-38 -80z" />
<glyph unicode="&#xe4;" horiz-adv-x="1327" d="M31 289q0 393 551 393q37 0 200 -14q-2 92 -75.5 122.5t-196.5 30.5q-176 0 -356 -90v299q219 61 446 62q100 0 182 -8.5t174.5 -36t153.5 -73.5t102 -129t41 -196v-649h-479v154h-4q-106 -178 -348 -179q-164 0 -277.5 78t-113.5 236zM209 1217v319h369v-319h-369z M502 348q0 -102 121 -102q76 0 117.5 57t41.5 133v33h-51q-66 0 -109.5 -6t-81.5 -35t-38 -80zM750 1217v319h368v-319h-368z" />
<glyph unicode="&#xe5;" horiz-adv-x="1327" d="M31 289q0 393 551 393q37 0 200 -14q-2 92 -75.5 122.5t-196.5 30.5q-176 0 -356 -90v299q219 61 446 62q100 0 182 -8.5t174.5 -36t153.5 -73.5t102 -129t41 -196v-649h-479v154h-4q-106 -178 -348 -179q-164 0 -277.5 78t-113.5 236zM381 1405q0 100 70.5 171t171.5 71 q98 0 169.5 -71t71.5 -171t-71.5 -171t-169.5 -71q-100 0 -171 71t-71 171zM502 348q0 -102 121 -102q76 0 117.5 57t41.5 133v33h-51q-66 0 -109.5 -6t-81.5 -35t-38 -80zM524 1405q0 -41 28 -69.5t71 -28.5q41 0 69.5 28.5t28.5 69.5t-28.5 69.5t-69.5 28.5 q-43 0 -71 -28.5t-28 -69.5z" />
<glyph unicode="&#xe6;" horiz-adv-x="1972" d="M37 289q0 117 47 198.5t128 121.5t162 56.5t173 16.5q47 0 117.5 -4t95.5 -4q-14 147 -246 147q-168 0 -356 -90v299q125 35 215 48.5t237 13.5q281 0 385 -146q86 76 166 111t225 35q260 0 404.5 -150.5t144.5 -427.5v-104h-704q2 -164 272 -164q203 0 367 67v-276 q-268 -61 -447 -62q-186 0 -296.5 33t-223.5 148q-137 -180 -457 -181q-178 0 -293.5 78t-115.5 236zM496 354q0 -53 31.5 -82.5t88.5 -29.5q78 0 115 54t41 136v41h-51q-225 0 -225 -119zM1231 635h258l-3 58q-1 19 -9.5 53t-21.5 52.5t-38.5 33t-60.5 14.5 q-129 0 -125 -211z" />
<glyph unicode="&#xe7;" horiz-adv-x="1138" d="M39 553q0 268 168 403.5t493 135.5q219 0 375 -45v-316q-119 53 -231 53q-119 0 -187.5 -61t-68.5 -178q0 -123 69.5 -192.5t186.5 -69.5q133 0 239 63v-317q-141 -45 -311 -52l-70 -112q37 6 74 6q84 0 139.5 -42t55.5 -126q0 -94 -92.5 -142t-212.5 -48q-164 0 -293 57 l55 127q123 -49 190 -49q35 0 71 14t36 37q0 27 -28.5 42t-63.5 15q-39 0 -76 -12l-68 74l101 166q-270 23 -410.5 169t-140.5 400z" />
<glyph unicode="&#xe8;" horiz-adv-x="1290" d="M35 553q0 268 168 403.5t493 135.5q559 0 559 -619v-63h-712q10 -164 284 -164q221 0 351 67v-276q-197 -61 -482 -62q-322 0 -491.5 149.5t-169.5 428.5zM190 1536h486l203 -319h-285zM541 635h268q0 211 -129 211q-80 0 -112.5 -66.5t-26.5 -144.5z" />
<glyph unicode="&#xe9;" horiz-adv-x="1290" d="M35 553q0 268 168 403.5t493 135.5q559 0 559 -619v-63h-712q10 -164 284 -164q221 0 351 67v-276q-197 -61 -482 -62q-322 0 -491.5 149.5t-169.5 428.5zM412 1217l202 319h486l-404 -319h-284zM541 635h268q0 211 -129 211q-80 0 -112.5 -66.5t-26.5 -144.5z" />
<glyph unicode="&#xea;" horiz-adv-x="1290" d="M35 553q0 268 168 403.5t493 135.5q559 0 559 -619v-63h-712q10 -164 284 -164q221 0 351 67v-276q-197 -61 -482 -62q-322 0 -491.5 149.5t-169.5 428.5zM207 1217l235 319h408l233 -319h-297l-145 192l-135 -192h-299zM541 635h268q0 211 -129 211q-80 0 -112.5 -66.5 t-26.5 -144.5z" />
<glyph unicode="&#xeb;" horiz-adv-x="1290" d="M35 553q0 268 168 403.5t493 135.5q559 0 559 -619v-63h-712q10 -164 284 -164q221 0 351 67v-276q-197 -61 -482 -62q-322 0 -491.5 149.5t-169.5 428.5zM190 1217v319h369v-319h-369zM541 635h268q0 211 -129 211q-80 0 -112.5 -66.5t-26.5 -144.5zM731 1217v319h369 v-319h-369z" />
<glyph unicode="&#xec;" horiz-adv-x="720" d="M-94 1536h485l203 -319h-285zM102 0v1067h516v-1067h-516z" />
<glyph unicode="&#xed;" horiz-adv-x="720" d="M102 0v1067h516v-1067h-516zM127 1217l203 319h485l-403 -319h-285z" />
<glyph unicode="&#xee;" horiz-adv-x="720" d="M-78 1217l236 319h407l234 -319h-297l-146 192l-135 -192h-299zM102 0v1067h516v-1067h-516z" />
<glyph unicode="&#xef;" horiz-adv-x="720" d="M-94 1217v319h368v-319h-368zM102 0v1067h516v-1067h-516zM446 1217v319h369v-319h-369z" />
<glyph unicode="&#xf0;" d="M39 510q0 217 141.5 372.5t349.5 155.5q129 0 213 -34.5t154 -122.5h4q-66 168 -336 331l-176 -116l-143 121l129 86q-109 37 -205 51l213 223q127 -23 276 -82l189 127l156 -115l-154 -104q514 -279 514 -836q0 -274 -179 -433t-489 -159q-657 0 -657 535zM588 520 q0 -250 108 -250q41 0 66.5 20.5t36 61.5t13.5 77t3 95q0 53 -3 88t-13.5 75t-34 60.5t-62.5 20.5q-114 0 -114 -248z" />
<glyph unicode="&#xf1;" d="M94 0v1067h488v-184h4q43 106 137 157.5t211 51.5q375 0 375 -351v-741h-516v614q0 33 -2.5 50.5t-9.5 44t-26.5 39t-52.5 12.5q-43 0 -64.5 -26.5t-24.5 -51.5t-3 -68v-614h-516zM252 1217q14 141 77.5 230t176.5 89q84 0 178 -29q158 -45 182 -45q74 0 92 74h195 q-8 -135 -84 -227t-192 -92q-88 0 -199 40q-92 35 -141 35q-35 0 -63 -23.5t-28 -51.5h-194z" />
<glyph unicode="&#xf2;" d="M39 553q0 268 168 403.5t493.5 135.5t494.5 -136.5t169 -402.5q0 -279 -171 -428.5t-492.5 -149.5t-491.5 149.5t-170 428.5zM248 1536h485l203 -319h-285zM588 553q0 -135 21.5 -202.5t91 -67.5t92 67.5t22.5 202.5q0 113 -22.5 172t-92 59t-91 -59t-21.5 -172z" />
<glyph unicode="&#xf3;" d="M39 553q0 268 168 403.5t493.5 135.5t494.5 -136.5t169 -402.5q0 -279 -171 -428.5t-492.5 -149.5t-491.5 149.5t-170 428.5zM469 1217l203 319h485l-403 -319h-285zM588 553q0 -135 21.5 -202.5t91 -67.5t92 67.5t22.5 202.5q0 113 -22.5 172t-92 59t-91 -59t-21.5 -172 z" />
<glyph unicode="&#xf4;" d="M39 553q0 268 168 403.5t493.5 135.5t494.5 -136.5t169 -402.5q0 -279 -171 -428.5t-492.5 -149.5t-491.5 149.5t-170 428.5zM264 1217l236 319h407l234 -319h-297l-146 192l-135 -192h-299zM588 553q0 -135 21.5 -202.5t91 -67.5t92 67.5t22.5 202.5q0 113 -22.5 172 t-92 59t-91 -59t-21.5 -172z" />
<glyph unicode="&#xf5;" d="M39 553q0 268 168 403.5t493.5 135.5t494.5 -136.5t169 -402.5q0 -279 -171 -428.5t-492.5 -149.5t-491.5 149.5t-170 428.5zM252 1217q14 141 77.5 230t176.5 89q84 0 178 -29q158 -45 182 -45q74 0 92 74h195q-8 -135 -84 -227t-192 -92q-88 0 -199 40q-92 35 -141 35 q-35 0 -63 -23.5t-28 -51.5h-194zM588 553q0 -135 21.5 -202.5t91 -67.5t92 67.5t22.5 202.5q0 113 -22.5 172t-92 59t-91 -59t-21.5 -172z" />
<glyph unicode="&#xf6;" d="M39 553q0 268 168 403.5t493.5 135.5t494.5 -136.5t169 -402.5q0 -279 -171 -428.5t-492.5 -149.5t-491.5 149.5t-170 428.5zM248 1217v319h368v-319h-368zM588 553q0 -135 21.5 -202.5t91 -67.5t92 67.5t22.5 202.5q0 113 -22.5 172t-92 59t-91 -59t-21.5 -172z M788 1217v319h369v-319h-369z" />
<glyph unicode="&#xf7;" horiz-adv-x="1228" d="M98 350v332h1032v-332h-1032zM414 90q0 84 59 143.5t143 59.5t143.5 -59.5t59.5 -143.5t-59.5 -143.5t-143.5 -59.5t-143 59.5t-59 143.5zM414 942q0 84 59 143.5t143 59.5t143.5 -59.5t59.5 -143.5t-59.5 -143.5t-143.5 -59.5t-143 59.5t-59 143.5z" />
<glyph unicode="&#xf8;" d="M39 553q0 266 168 402.5t493 136.5q164 0 293 -37l199 252l147 -119l-170 -215q195 -135 195 -420q0 -276 -171 -427t-493 -151q-162 0 -294 41l-201 -254l-144 119l177 219q-199 152 -199 453zM575 506h5l206 276q-31 27 -79 27q-82 0 -107 -70.5t-25 -222.5v-10z M621 287q25 -29 75 -29q43 0 71 20.5t40 65.5t16 90t4 119v10h-4z" />
<glyph unicode="&#xf9;" d="M94 326v741h516v-614q0 -33 2 -50.5t9.5 -44t27 -39t51.5 -12.5q43 0 64.5 26.5t25 51.5t3.5 68v614h516v-1067h-488v184h-4q-43 -106 -137 -157.5t-211 -51.5q-375 1 -375 351zM248 1536h485l203 -319h-285z" />
<glyph unicode="&#xfa;" d="M94 326v741h516v-614q0 -33 2 -50.5t9.5 -44t27 -39t51.5 -12.5q43 0 64.5 26.5t25 51.5t3.5 68v614h516v-1067h-488v184h-4q-43 -106 -137 -157.5t-211 -51.5q-375 1 -375 351zM469 1217l203 319h485l-403 -319h-285z" />
<glyph unicode="&#xfb;" d="M94 326v741h516v-614q0 -33 2 -50.5t9.5 -44t27 -39t51.5 -12.5q43 0 64.5 26.5t25 51.5t3.5 68v614h516v-1067h-488v184h-4q-43 -106 -137 -157.5t-211 -51.5q-375 1 -375 351zM264 1217l236 319h407l234 -319h-297l-146 192l-135 -192h-299z" />
<glyph unicode="&#xfc;" d="M94 326v741h516v-614q0 -33 2 -50.5t9.5 -44t27 -39t51.5 -12.5q43 0 64.5 26.5t25 51.5t3.5 68v614h516v-1067h-488v184h-4q-43 -106 -137 -157.5t-211 -51.5q-375 1 -375 351zM248 1217v319h368v-319h-368zM788 1217v319h369v-319h-369z" />
<glyph unicode="&#xfd;" horiz-adv-x="1251" d="M-27 1067h535l133 -655h4l127 655h496l-283 -893q-27 -90 -44 -142t-49 -128t-60.5 -120t-73.5 -95t-97.5 -79t-123 -46.5t-154.5 -18.5q-113 0 -338 37v303q68 -20 154 -20q74 0 117.5 28.5t43.5 71.5q0 35 -19 94.5t-51 139.5t-44 120zM393 1217l203 319h485l-403 -319 h-285z" />
<glyph unicode="&#xfe;" horiz-adv-x="1441" d="M102 -430v1966h516v-598h5q90 154 307 154q125 0 217 -46.5t146.5 -127t80 -181t25.5 -221.5q0 -236 -114 -388.5t-341 -152.5q-221 0 -321 162h-5v-567h-516zM604 528q0 -111 26.5 -172t104.5 -61q127 0 127 221q0 231 -131 232q-127 -1 -127 -220z" />
<glyph unicode="&#xff;" horiz-adv-x="1251" d="M-27 1067h535l133 -655h4l127 655h496l-283 -893q-27 -90 -44 -142t-49 -128t-60.5 -120t-73.5 -95t-97.5 -79t-123 -46.5t-154.5 -18.5q-113 0 -338 37v303q68 -20 154 -20q74 0 117.5 28.5t43.5 71.5q0 35 -19 94.5t-51 139.5t-44 120zM172 1217v319h369v-319h-369z M713 1217v319h368v-319h-368z" />
<glyph unicode="&#x152;" horiz-adv-x="2199" d="M53 707q0 401 191.5 564t593.5 159h1294v-345h-600v-202h565v-344h-565v-195h614v-344h-1333q-375 0 -567.5 168t-192.5 539zM614 692q0 -193 60.5 -270.5t222.5 -77.5h98v741h-104q-80 0 -127 -13t-84 -54t-51.5 -119t-14.5 -207z" />
<glyph unicode="&#x153;" horiz-adv-x="2048" d="M39 553q0 264 163 401.5t439 137.5q250 0 403 -144q98 82 178.5 113t211.5 31q569 0 569 -578v-104h-705q2 -164 273 -164q203 0 366 67v-276q-268 -61 -446 -62q-168 0 -261 29t-179 115q-127 -143 -416 -144q-270 0 -433 145.5t-163 432.5zM588 553q0 -135 21.5 -202.5 t91 -67.5t92 67.5t22.5 202.5q0 113 -22.5 172t-92 59t-91 -59t-21.5 -172zM1298 635h258l-3 58q-1 19 -9 53t-21.5 52.5t-39 33t-60.5 14.5q-125 0 -125 -211z" />
<glyph unicode="&#x178;" horiz-adv-x="1554" d="M-31 1430h596l223 -599h5l225 599h567l-536 -992v-438h-549v438zM324 1538v320h368v-320h-368zM864 1538v320h369v-320h-369z" />
<glyph unicode="&#x2c6;" horiz-adv-x="569" d="M-154 1217l236 319h407l234 -319h-297l-145 192l-136 -192h-299z" />
<glyph unicode="&#x2dc;" horiz-adv-x="569" d="M-166 1217q14 141 77.5 230t176.5 89q84 0 178 -29q158 -45 183 -45q74 0 92 74h194q-8 -135 -84 -227t-192 -92q-88 0 -199 40q-92 35 -141 35q-35 0 -62.5 -23.5t-27.5 -51.5h-195z" />
<glyph unicode="&#x2000;" horiz-adv-x="983" />
<glyph unicode="&#x2001;" horiz-adv-x="1968" />
<glyph unicode="&#x2002;" horiz-adv-x="983" />
<glyph unicode="&#x2003;" horiz-adv-x="1968" />
<glyph unicode="&#x2004;" horiz-adv-x="655" />
<glyph unicode="&#x2005;" horiz-adv-x="491" />
<glyph unicode="&#x2006;" horiz-adv-x="327" />
<glyph unicode="&#x2007;" horiz-adv-x="327" />
<glyph unicode="&#x2008;" horiz-adv-x="245" />
<glyph unicode="&#x2009;" horiz-adv-x="393" />
<glyph unicode="&#x200a;" horiz-adv-x="108" />
<glyph unicode="&#x2010;" horiz-adv-x="757" d="M92 373v356h574v-356h-574z" />
<glyph unicode="&#x2011;" horiz-adv-x="757" d="M92 373v356h574v-356h-574z" />
<glyph unicode="&#x2013;" horiz-adv-x="1024" d="M0 397v308h1024v-308h-1024z" />
<glyph unicode="&#x2014;" horiz-adv-x="2048" d="M0 397v308h2048v-308h-2048z" />
<glyph unicode="&#x2018;" horiz-adv-x="647" d="M43 805l236 625h325l-127 -625h-434z" />
<glyph unicode="&#x2019;" horiz-adv-x="647" d="M43 805l127 625h434l-235 -625h-326z" />
<glyph unicode="&#x201a;" horiz-adv-x="647" d="M43 -252l127 625h434l-235 -625h-326z" />
<glyph unicode="&#x201c;" horiz-adv-x="1138" d="M29 805l235 625h326l-127 -625h-434zM549 805l235 625h326l-127 -625h-434z" />
<glyph unicode="&#x201d;" horiz-adv-x="1138" d="M29 805l127 625h434l-236 -625h-325zM549 805l127 625h434l-236 -625h-325z" />
<glyph unicode="&#x201e;" horiz-adv-x="1138" d="M29 -252l127 625h434l-236 -625h-325zM549 -252l127 625h434l-236 -625h-325z" />
<glyph unicode="&#x2022;" horiz-adv-x="1024" d="M129 714.5q0 157.5 112.5 270.5t270.5 113t270.5 -113t112.5 -270.5t-112.5 -270t-270.5 -112.5t-270.5 112.5t-112.5 270z" />
<glyph unicode="&#x2026;" horiz-adv-x="2048" d="M119 0v393h446v-393h-446zM801 0v393h446v-393h-446zM1483 0v393h446v-393h-446z" />
<glyph unicode="&#x202f;" horiz-adv-x="393" />
<glyph unicode="&#x2039;" horiz-adv-x="796" d="M51 553l242 442h409l-184 -442l184 -442h-409z" />
<glyph unicode="&#x203a;" horiz-adv-x="796" d="M94 111l185 442l-185 442h410l241 -442l-241 -442h-410z" />
<glyph unicode="&#x205f;" horiz-adv-x="491" />
<glyph unicode="&#x20ac;" horiz-adv-x="1400" d="M33 487l45 168h162q-4 59 0 119h-207l45 168h190q70 233 278 372.5t460 139.5q199 0 413 -61l-90 -340q-90 31 -201 30q-170 0 -272 -141h436l-43 -168h-448q-6 -59 0 -119h413l-45 -168h-313q49 -61 123 -96t147 -35q113 0 203 29l12 -377q-129 -33 -317 -33 q-276 0 -484 129t-274 383h-233z" />
<glyph unicode="&#x2122;" horiz-adv-x="2048" d="M66 1217v213h704v-213h-199v-639h-307v639h-198zM924 578v852h387l151 -445h4l152 445h387v-852h-283v438h-4l-135 -438h-237l-136 438h-4v-438h-282z" />
</font>
</defs>
</svg>
