<?xml version="1.0" standalone="no"?>
<!DOCTYPE svg PUBLIC "-//W3C//DTD SVG 1.1//EN" "http://www.w3.org/Graphics/SVG/1.1/DTD/svg11.dtd" >
<svg>
<metadata>
Created by FontForge 20110222 at Mon Nov 28 05:00:38 2011
 By System Administrator
Copyright 1987, 1991 , 2002Adobe Systems Incorporated. All Rights Reserved. 
</metadata>
<defs>
<font id="NewsGothicStd" horiz-adv-x="576" >
  <font-face 
    font-family="News Gothic Std"
    font-weight="400"
    font-stretch="normal"
    units-per-em="1000"
    panose-1="2 11 5 6 2 2 3 2 2 4"
    ascent="778"
    descent="-222"
    x-height="552"
    cap-height="778"
    bbox="-187 -250 1000 1020"
    underline-thickness="50"
    underline-position="-50"
    stemh="70"
    stemv="78"
    unicode-range="U+0020-FB02"
  />
<missing-glyph horiz-adv-x="500" 
d="M0 0v700h500v-700h-500zM250 395l170 255h-340zM280 350l170 -255v510zM80 50h340l-170 255zM50 605v-510l170 255z" />
    <glyph glyph-name="fi" unicode="fi" horiz-adv-x="474" 
d="M412 552v-552h-78v486h-164v-486h-78v486h-84v66h84v100c0 94 73 142 166 142c68 0 91 -12 114 -26v-76c-35 33 -68 36 -111 36c-59 0 -91 -30 -91 -75v-101h242z" />
    <glyph glyph-name="fl" unicode="fl" horiz-adv-x="489" 
d="M272 552v-66h-102v-486h-78v486h-84v66h84v100c0 94 73 142 166 142c43 0 106 -5 169 -16v-778h-78v711c-17 14 -45 17 -88 17c-59 0 -91 -30 -91 -75v-101h102z" />
    <glyph glyph-name=".notdef" horiz-adv-x="500" 
d="M0 0v700h500v-700h-500zM250 395l170 255h-340zM280 350l170 -255v510zM80 50h340l-170 255zM50 605v-510l170 255z" />
    <glyph glyph-name="space" unicode=" " horiz-adv-x="288" 
 />
    <glyph glyph-name="exclam" unicode="!" horiz-adv-x="179" 
d="M139 778l-22 -529h-55l-22 529h99zM140 117v-117h-101v117h101z" />
    <glyph glyph-name="quotedbl" unicode="&#x22;" horiz-adv-x="278" 
d="M55 552v226h55v-226h-55zM168 552v226h55v-226h-55z" />
    <glyph glyph-name="numbersign" unicode="#" 
d="M513 296v-70h-102l-25 -226h-72l25 226h-134l-25 -226h-70l25 226h-99v70h107l21 186h-100v70h108l25 226h70l-25 -226h134l25 226h72l-25 -226h91v-70h-99l-21 -186h94zM368 482h-134l-21 -186h134z" />
    <glyph glyph-name="dollar" unicode="$" 
d="M320 -4v-91h-70v91c-86 14 -161 70 -203 146l60 38c41 -68 99 -118 183 -118c82 0 164 52 164 142c0 216 -393 121 -393 382c0 113 80 186 189 196v91h70v-91c71 -11 136 -56 176 -116l-56 -42c-46 61 -80 92 -161 92c-66 0 -143 -36 -143 -121c0 -202 393 -101 393 -391
c0 -122 -96 -194 -209 -208z" />
    <glyph glyph-name="percent" unicode="%" horiz-adv-x="696" 
d="M658 187c0 -94 -25 -203 -133 -203s-133 109 -133 203s25 203 133 203s133 -109 133 -203zM596 187c0 64 -4 148 -71 148s-71 -84 -71 -148s4 -148 71 -148s71 84 71 148zM304 591c0 -94 -25 -203 -133 -203s-133 109 -133 203s25 203 133 203s133 -109 133 -203z
M242 591c0 64 -4 148 -71 148s-71 -84 -71 -148s4 -148 71 -148s71 84 71 148zM527 778h64l-421 -778h-65z" />
    <glyph glyph-name="ampersand" unicode="&#x26;" horiz-adv-x="632" 
d="M229 380c-64 -41 -115 -87 -115 -169c0 -85 60 -160 148 -160c61 0 104 28 145 71c-68 79 -129 166 -178 258zM523 379l70 -13c-13 -80 -34 -162 -83 -237c34 -27 69 -59 114 -59v-70c-72 0 -122 35 -166 68c-58 -50 -122 -84 -201 -84c-120 0 -218 96 -218 219
c0 109 68 185 156 239c-27 57 -54 107 -54 182c0 96 58 170 150 170c89 0 147 -66 147 -160c0 -96 -67 -163 -142 -213c43 -82 97 -165 162 -237c34 46 53 131 65 195zM260 482c58 37 103 88 103 165c0 47 -28 83 -73 83c-52 0 -74 -55 -74 -103c0 -53 17 -99 44 -145z" />
    <glyph glyph-name="quoteright" unicode="&#x2019;" horiz-adv-x="195" 
d="M148 778v-109l-67 -162h-50l50 154h-34v117h101z" />
    <glyph glyph-name="parenleft" unicode="(" horiz-adv-x="260" 
d="M221 -70l-62 -26c-82 143 -120 281 -120 445s38 302 120 445l62 -26c-66 -132 -106 -270 -106 -419s40 -287 106 -419z" />
    <glyph glyph-name="parenright" unicode=")" horiz-adv-x="260" 
d="M101 -96l-62 26c66 132 106 270 106 419s-40 287 -106 419l62 26c82 -143 120 -281 120 -445s-38 -302 -120 -445z" />
    <glyph glyph-name="asterisk" unicode="*" horiz-adv-x="544" 
d="M301 778v-108l102 33l18 -54l-102 -33l63 -88l-46 -33l-64 87l-63 -87l-46 33l63 88l-103 33l18 54l103 -33v108h57z" />
    <glyph glyph-name="plus" unicode="+" horiz-adv-x="660" 
d="M295 311v215h70v-215h215v-70h-215v-215h-70v215h-215v70h215z" />
    <glyph glyph-name="comma" unicode="," horiz-adv-x="288" 
d="M194 117v-109l-67 -162h-50l50 154h-34v117h101z" />
    <glyph glyph-name="hyphen" unicode="-" horiz-adv-x="205" 
d="M0 323h205v-70h-205v70z" />
    <glyph glyph-name="period" unicode="." horiz-adv-x="288" 
d="M194 117v-117h-101v117h101z" />
    <glyph glyph-name="slash" unicode="/" horiz-adv-x="439" 
d="M493 778l-478 -926h-70l478 926h70z" />
    <glyph glyph-name="zero" unicode="0" 
d="M288 794c205 0 243 -233 243 -405s-38 -405 -243 -405s-243 233 -243 405s38 405 243 405zM288 724c-153 0 -167 -211 -167 -335s14 -335 167 -335s167 211 167 335s-14 335 -167 335z" />
    <glyph glyph-name="one" unicode="1" 
d="M321 778v-708h111v-70h-306v70h113v618l-126 -11v48l143 53h65z" />
    <glyph glyph-name="two" unicode="2" 
d="M144 70h369v-70h-451v71c113 284 369 312 369 504c0 77 -49 149 -131 149c-87 0 -144 -82 -156 -161l-71 20c24 118 107 211 233 211c124 0 207 -95 207 -216c0 -233 -300 -288 -369 -508z" />
    <glyph glyph-name="three" unicode="3" 
d="M247 375l-51 -5v76l65 -2c115 0 166 61 166 140c0 87 -53 140 -140 140c-68 0 -113 -43 -149 -95l-59 41c54 74 130 124 223 124c128 0 203 -92 203 -200c0 -91 -37 -141 -116 -182c90 -30 137 -102 137 -195c0 -144 -99 -233 -240 -233c-104 0 -188 55 -236 146l63 38
c41 -66 91 -114 174 -114c94 0 157 57 157 153c0 127 -82 168 -197 168z" />
    <glyph glyph-name="four" unicode="4" 
d="M542 256v-70h-118v-186h-82v186h-308v70l279 522h111v-522h118zM342 256v437h-2l-225 -437h227z" />
    <glyph glyph-name="five" unicode="5" 
d="M463 778v-70h-288l-21 -247c39 46 84 65 144 65c145 0 218 -128 218 -259c0 -148 -84 -283 -243 -283c-104 0 -169 55 -213 144l65 39c27 -63 78 -113 150 -113c115 0 159 108 159 207c0 130 -69 195 -143 195c-66 0 -115 -50 -149 -103l-62 13l27 412h356z" />
    <glyph glyph-name="six" unicode="6" 
d="M494 743l-37 -60c-36 28 -68 41 -115 41c-80 0 -201 -65 -212 -328l2 -2c40 62 104 102 180 102c83 0 215 -61 215 -246c0 -202 -137 -266 -229 -266c-124 0 -249 103 -249 357c0 305 134 453 291 453c61 0 104 -17 154 -51zM315 426c-85 0 -150 -72 -183 -144
c8 -205 120 -228 167 -228c62 0 146 48 146 200c0 83 -40 172 -130 172z" />
    <glyph glyph-name="seven" unicode="7" 
d="M520 778v-58l-284 -720h-93l295 708h-352v70h434z" />
    <glyph glyph-name="eight" unicode="8" 
d="M275 376c-80 -28 -158 -78 -158 -173c0 -98 79 -149 169 -149c91 0 173 48 173 148c0 104 -98 147 -184 174zM372 415c96 -46 165 -103 165 -218c0 -139 -120 -213 -247 -213c-129 0 -251 68 -251 211c0 114 64 172 159 220c-76 46 -129 92 -129 187
c0 123 110 192 223 192c109 0 220 -72 220 -191c0 -93 -61 -151 -140 -188zM292 452c71 20 142 63 142 146c0 81 -60 126 -138 126c-71 0 -149 -39 -149 -120c0 -79 78 -128 145 -152z" />
    <glyph glyph-name="nine" unicode="9" 
d="M82 35l37 60c36 -28 68 -41 115 -41c80 0 201 65 212 328l-2 2c-40 -62 -104 -102 -180 -102c-83 0 -215 61 -215 246c0 202 137 266 229 266c124 0 249 -103 249 -357c0 -305 -134 -453 -291 -453c-61 0 -104 17 -154 51zM261 352c85 0 150 72 183 144
c-8 205 -120 228 -167 228c-62 0 -146 -48 -146 -200c0 -83 40 -172 130 -172z" />
    <glyph glyph-name="colon" unicode=":" horiz-adv-x="288" 
d="M194 117v-117h-101v117h101zM194 552v-117h-101v117h101z" />
    <glyph glyph-name="semicolon" unicode=";" horiz-adv-x="288" 
d="M194 117v-109l-67 -162h-50l50 154h-34v117h101zM194 552v-117h-101v117h101z" />
    <glyph glyph-name="less" unicode="&#x3c;" horiz-adv-x="660" 
d="M169 276l411 -192v-69l-500 235v53l500 223v-69z" />
    <glyph glyph-name="equal" unicode="=" horiz-adv-x="660" 
d="M580 400v-70h-500v70h500zM580 206v-70h-500v70h500z" />
    <glyph glyph-name="greater" unicode="&#x3e;" horiz-adv-x="660" 
d="M580 303v-53l-500 -235v69l411 192l-411 181v69z" />
    <glyph glyph-name="question" unicode="?" horiz-adv-x="354" 
d="M176 249h-63v68c0 152 137 167 137 310c0 46 -22 96 -76 96c-49 0 -69 -37 -90 -75l-62 33c28 64 82 113 155 113c95 0 155 -64 155 -164c0 -155 -156 -218 -156 -323v-58zM195 117v-117h-101v117h101z" />
    <glyph glyph-name="at" unicode="@" horiz-adv-x="800" 
d="M698 183h70c-69 -124 -208 -199 -348 -199c-224 0 -405 182 -405 405s181 405 405 405c201 0 365 -142 365 -338c0 -168 -135 -301 -250 -301c-37 0 -79 16 -91 65c-33 -43 -83 -65 -128 -65c-92 0 -139 64 -139 152c0 143 108 314 256 314c50 0 98 -25 104 -81h2l20 59
h71l-108 -302c-16 -48 -24 -82 28 -82c89 0 173 131 173 245c0 174 -144 272 -303 272c-193 0 -343 -150 -343 -343s150 -343 343 -343c105 0 214 45 278 137zM332 219c88 1 167 174 167 271c0 31 -20 73 -64 73c-103 0 -176 -154 -176 -251c0 -51 19 -93 73 -93z" />
    <glyph glyph-name="A" unicode="A" horiz-adv-x="559" 
d="M335 778l224 -778h-84l-71 248h-253l-67 -248h-84l219 778h116zM385 318l-109 408h-2l-102 -408h213z" />
    <glyph glyph-name="B" unicode="B" horiz-adv-x="592" 
d="M144 443h73c100 0 228 -2 228 134c0 137 -121 131 -222 131h-79v-265zM144 373v-303h97c189 0 222 57 222 142c0 93 -43 161 -214 161h-105zM288 0h-226v778h214c199 0 251 -113 251 -200c0 -83 -48 -148 -129 -168c93 -28 147 -94 147 -193c0 -92 -40 -217 -257 -217z
" />
    <glyph glyph-name="C" unicode="C" horiz-adv-x="622" 
d="M568 560l-73 -18c-21 90 -61 185 -168 185c-108 0 -200 -102 -200 -338s92 -338 200 -338c102 0 149 93 168 185l76 -20c-22 -128 -104 -232 -244 -232c-162 0 -282 149 -282 405s120 405 282 405c138 0 218 -102 241 -234z" />
    <glyph glyph-name="D" unicode="D" horiz-adv-x="628" 
d="M62 778h192c226 0 328 -163 328 -385c0 -248 -102 -393 -349 -393h-171v778zM144 708v-638h77c194 2 279 100 279 326c0 199 -80 310 -241 312h-115z" />
    <glyph glyph-name="E" unicode="E" horiz-adv-x="558" 
d="M484 778v-70h-340v-265h243v-70h-243v-303h363v-70h-445v778h422z" />
    <glyph glyph-name="F" unicode="F" horiz-adv-x="486" 
d="M454 778v-70h-310v-257h235v-70h-235v-381h-82v778h392z" />
    <glyph glyph-name="G" unicode="G" horiz-adv-x="638" 
d="M583 568l-79 -19c-22 91 -63 178 -177 178c-108 0 -200 -102 -200 -338s92 -338 200 -338c144 0 182 134 174 252h-158v70h240v-373h-70v76c-42 -58 -109 -92 -186 -92c-162 0 -282 149 -282 405s120 405 282 405c143 0 230 -98 256 -226z" />
    <glyph glyph-name="H" unicode="H" horiz-adv-x="620" 
d="M144 451h332v327h82v-778h-82v381h-332v-381h-82v778h82v-327z" />
    <glyph glyph-name="I" unicode="I" horiz-adv-x="206" 
d="M144 778v-778h-82v778h82z" />
    <glyph glyph-name="J" unicode="J" horiz-adv-x="419" 
d="M361 778v-569c0 -184 -106 -225 -190 -225c-73 0 -141 44 -163 115l73 37c7 -43 44 -75 88 -75c66 0 110 59 110 149v568h82z" />
    <glyph glyph-name="K" unicode="K" horiz-adv-x="581" 
d="M144 382l305 396h91l-218 -287l243 -491h-93l-206 419l-122 -158v-261h-82v778h82v-396z" />
    <glyph glyph-name="L" unicode="L" horiz-adv-x="507" 
d="M144 778v-708h332v-70h-414v778h82z" />
    <glyph glyph-name="M" unicode="M" horiz-adv-x="739" 
d="M144 705v-705h-82v778h136l170 -641h3l167 641h139v-778h-82v705h-2l-190 -705h-67l-190 705h-2z" />
    <glyph glyph-name="N" unicode="N" horiz-adv-x="648" 
d="M144 707v-707h-82v778h130l310 -613h2v613h82v-778h-82l-358 707h-2z" />
    <glyph glyph-name="O" unicode="O" horiz-adv-x="654" 
d="M327 794c162 0 282 -149 282 -405s-120 -405 -282 -405s-282 149 -282 405s120 405 282 405zM327 727c-108 0 -200 -102 -200 -338s92 -338 200 -338s200 102 200 338s-92 338 -200 338z" />
    <glyph glyph-name="P" unicode="P" horiz-adv-x="562" 
d="M62 778h214c194 0 255 -123 255 -213c0 -95 -56 -215 -268 -215h-119v-350h-82v778zM144 708v-288h68c107 0 237 4 237 144c0 148 -140 144 -248 144h-57z" />
    <glyph glyph-name="Q" unicode="Q" horiz-adv-x="654" 
d="M494 -112h55v-70h-55c-104 0 -190 18 -208 171c-193 31 -241 248 -241 400c0 256 120 405 282 405s282 -149 282 -405c0 -152 -48 -369 -243 -400c12 -96 79 -101 128 -101zM327 727c-108 0 -200 -102 -200 -338s92 -338 200 -338s200 102 200 338s-92 338 -200 338z" />
    <glyph glyph-name="R" unicode="R" horiz-adv-x="570" 
d="M62 778h184c242 0 283 -128 283 -218c0 -93 -59 -168 -147 -197l149 -363h-91l-141 350h-155v-350h-82v778zM144 708v-288h110c161 0 193 71 193 143c0 107 -67 145 -178 145h-125z" />
    <glyph glyph-name="S" unicode="S" horiz-adv-x="591" 
d="M538 591l-74 -23c-26 87 -62 159 -162 159c-71 0 -137 -57 -137 -133c0 -194 379 -118 379 -390c0 -136 -101 -220 -232 -220c-139 0 -238 85 -265 220l79 19c19 -92 89 -172 187 -172c80 0 149 61 149 144c0 216 -379 126 -379 387c0 128 100 212 224 212
c123 0 202 -91 231 -203z" />
    <glyph glyph-name="T" unicode="T" horiz-adv-x="532" 
d="M516 778v-70h-209v-708h-82v708h-209v70h500z" />
    <glyph glyph-name="U" unicode="U" horiz-adv-x="610" 
d="M552 778v-534c0 -209 -137 -260 -247 -260s-247 51 -247 260v534h82v-477c0 -121 9 -239 165 -239s165 118 165 239v477h82z" />
    <glyph glyph-name="V" unicode="V" horiz-adv-x="527" 
d="M527 778l-230 -778h-75l-222 778h84l175 -633h2l186 633h80z" />
    <glyph glyph-name="W" unicode="W" horiz-adv-x="774" 
d="M774 778l-178 -778h-80l-132 636h-2l-139 -636h-80l-163 778h78l128 -628h2l140 628h77l133 -628h2l137 628h77z" />
    <glyph glyph-name="X" unicode="X" horiz-adv-x="544" 
d="M511 778l-194 -370l219 -408h-94l-172 333h-2l-173 -333h-87l213 408l-201 370h94l154 -293h2l154 293h87z" />
    <glyph glyph-name="Y" unicode="Y" horiz-adv-x="536" 
d="M536 778l-222 -452v-326h-82v326l-232 452h86l188 -373h2l177 373h83z" />
    <glyph glyph-name="Z" unicode="Z" horiz-adv-x="529" 
d="M490 778v-69l-351 -639h351v-70h-451v63l355 645h-319v70h415z" />
    <glyph glyph-name="bracketleft" unicode="[" horiz-adv-x="260" 
d="M258 778v-66h-100v-742h100v-66h-178v874h178z" />
    <glyph glyph-name="backslash" unicode="\" horiz-adv-x="278" 
d="M267 0l-326 778h70l326 -778h-70z" />
    <glyph glyph-name="bracketright" unicode="]" horiz-adv-x="260" 
d="M2 778h178v-874h-178v66h100v742h-100v66z" />
    <glyph glyph-name="asciicircum" unicode="^" horiz-adv-x="660" 
d="M136 325h-63l230 453h52l231 -453h-62l-196 372z" />
    <glyph glyph-name="underscore" unicode="_" horiz-adv-x="500" 
d="M500 -125h-500v50h500v-50z" />
    <glyph glyph-name="quoteleft" unicode="&#x2018;" horiz-adv-x="195" 
d="M47 507v109l67 162h50l-50 -154h34v-117h-101z" />
    <glyph glyph-name="a" unicode="a" horiz-adv-x="500" 
d="M453 0h-85l-8 70c-45 -44 -95 -86 -160 -86c-85 0 -153 71 -153 158c0 158 166 192 288 225l25 7v31c0 63 -43 97 -105 97c-61 0 -103 -40 -135 -87l-55 41c46 66 106 112 190 112c75 0 183 -46 183 -172v-274c1 -41 -1 -83 15 -122zM360 310l-31 -9
c-74 -22 -209 -52 -209 -151c0 -46 36 -92 83 -92c62 0 119 43 157 90v162z" />
    <glyph glyph-name="b" unicode="b" horiz-adv-x="530" 
d="M140 411v-256c22 -47 75 -103 130 -103c54 0 131 53 131 215c0 83 -23 233 -132 233c-60 0 -105 -41 -129 -89zM140 63v-63h-78v778h78v-283c36 38 85 73 138 73c95 0 205 -86 205 -303c0 -212 -127 -281 -202 -281c-61 0 -104 33 -141 79z" />
    <glyph glyph-name="c" unicode="c" horiz-adv-x="505" 
d="M444 428l-66 -30c-19 51 -49 106 -111 104c-120 0 -143 -132 -143 -226s23 -226 143 -226c67 3 105 57 129 111l63 -28c-32 -84 -103 -149 -192 -149c-123 0 -221 85 -221 292s98 292 221 292c91 0 147 -57 177 -140z" />
    <glyph glyph-name="d" unicode="d" horiz-adv-x="529" 
d="M389 155v256c-24 48 -69 89 -129 89c-109 0 -132 -150 -132 -233c0 -162 77 -215 131 -215c55 0 108 56 130 103zM389 495v283h78v-778h-78v63c-37 -46 -80 -79 -141 -79c-75 0 -202 69 -202 281c0 217 110 303 205 303c53 0 102 -35 138 -73z" />
    <glyph glyph-name="e" unicode="e" horiz-adv-x="512" 
d="M461 263h-333c0 -158 67 -213 147 -213c58 0 107 47 135 95l56 -37c-30 -71 -104 -124 -199 -124c-123 0 -221 85 -221 292s98 292 221 292c159 0 205 -170 194 -305zM130 329h249c2 71 -36 173 -118 173c-88 0 -130 -95 -131 -173z" />
    <glyph glyph-name="f" unicode="f" horiz-adv-x="287" 
d="M272 552v-66h-102v-486h-78v486h-84v66h84v100c0 94 53 142 146 142l41 -6v-67c-12 4 -25 7 -38 7c-59 0 -71 -30 -71 -75v-101h102z" />
    <glyph glyph-name="g" unicode="g" horiz-adv-x="553" 
d="M385 376c0 72 -39 133 -117 133c-75 0 -122 -63 -122 -134c0 -69 43 -130 115 -130c80 0 124 55 124 131zM297 26l-82 8c-42 -8 -104 -33 -104 -83c0 -76 112 -80 165 -80c56 0 155 11 155 87c0 58 -92 65 -134 68zM511 571v-69h-29c-22 0 -36 -1 -56 -12
c23 -34 34 -73 34 -114c0 -107 -79 -190 -186 -190c-32 0 -60 6 -89 17c-17 -14 -47 -32 -47 -59c0 -70 368 18 368 -191c0 -41 -13 -144 -234 -144c-180 0 -236 70 -236 138c0 57 50 88 96 108c-33 13 -69 37 -69 77c0 49 38 64 69 101c-40 47 -61 80 -61 145
c0 112 84 190 195 190c44 0 84 -13 120 -39c36 27 78 47 125 42z" />
    <glyph glyph-name="h" unicode="h" horiz-adv-x="491" 
d="M138 778v-283c46 37 89 73 152 73c78 0 141 -43 141 -187v-381h-78v361c0 58 10 143 -73 143c-48 0 -111 -47 -142 -84v-420h-78v778h78z" />
    <glyph glyph-name="i" unicode="i" horiz-adv-x="202" 
d="M140 552v-552h-78v552h78zM140 778v-86h-78v86h78z" />
    <glyph glyph-name="j" unicode="j" horiz-adv-x="202" 
d="M140 552v-611c0 -101 -45 -136 -126 -136h-36v75c11 -2 22 -4 32 -4c57 0 52 46 52 87v589h78zM140 778v-86h-78v86h78z" />
    <glyph glyph-name="k" unicode="k" horiz-adv-x="475" 
d="M140 778v-482l205 256h87l-152 -189l175 -363h-84l-141 300l-90 -111v-189h-78v778h78z" />
    <glyph glyph-name="l" unicode="l" horiz-adv-x="202" 
d="M140 778v-778h-78v778h78z" />
    <glyph glyph-name="m" unicode="m" horiz-adv-x="794" 
d="M138 431v-431h-78v552h78v-49c48 39 89 65 153 65c59 0 104 -25 133 -75c51 41 100 74 169 75c78 0 141 -43 141 -187v-381h-78v361c0 58 10 143 -73 143c-57 1 -114 -38 -147 -73v-431h-78v361c0 58 10 143 -73 143c-67 -2 -107 -37 -147 -73z" />
    <glyph glyph-name="n" unicode="n" horiz-adv-x="491" 
d="M138 420v-420h-78v552h78v-57c46 37 89 73 152 73c78 0 141 -43 141 -187v-381h-78v361c0 58 10 143 -73 143c-48 0 -111 -47 -142 -84z" />
    <glyph glyph-name="o" unicode="o" horiz-adv-x="534" 
d="M267 -16c-123 0 -221 85 -221 292s98 292 221 292s221 -85 221 -292s-98 -292 -221 -292zM267 50c120 0 143 132 143 226s-23 226 -143 226s-143 -132 -143 -226s23 -226 143 -226z" />
    <glyph glyph-name="p" unicode="p" horiz-adv-x="529" 
d="M140 411v-256c22 -47 75 -103 130 -103c54 0 131 53 131 215c0 83 -23 233 -132 233c-60 0 -105 -41 -129 -89zM140 63v-234h-78v723h78v-57c36 38 85 73 138 73c95 0 205 -86 205 -303c0 -212 -127 -281 -202 -281c-61 0 -104 33 -141 79z" />
    <glyph glyph-name="q" unicode="q" horiz-adv-x="529" 
d="M389 155v256c-24 48 -69 89 -129 89c-109 0 -132 -150 -132 -233c0 -162 77 -215 131 -215c55 0 108 56 130 103zM389 495v57h78v-723h-78v234c-37 -46 -80 -79 -141 -79c-75 0 -202 69 -202 281c0 217 110 303 205 303c53 0 102 -35 138 -73z" />
    <glyph glyph-name="r" unicode="r" horiz-adv-x="349" 
d="M140 552v-119h2c31 66 71 127 153 127h30v-71c-102 14 -155 -96 -185 -176v-313h-78v552h78z" />
    <glyph glyph-name="s" unicode="s" horiz-adv-x="480" 
d="M423 472l-55 -43c-31 46 -68 73 -126 73c-51 0 -99 -26 -99 -82c0 -135 291 -76 291 -262c0 -108 -77 -174 -181 -174c-89 0 -161 39 -206 116l62 39c30 -57 78 -89 144 -89c57 0 108 31 108 94c0 139 -291 73 -291 271c0 95 78 153 169 153c77 0 141 -32 184 -96z" />
    <glyph glyph-name="t" unicode="t" horiz-adv-x="303" 
d="M170 731v-179h125v-66h-125v-347c0 -54 -1 -89 63 -89c22 0 43 2 62 7v-57c-25 -9 -51 -16 -78 -16c-132 0 -125 89 -125 190v312h-84v66h84v179h78z" />
    <glyph glyph-name="u" unicode="u" horiz-adv-x="491" 
d="M353 132v420h78v-552h-78v57c-46 -37 -89 -73 -152 -73c-78 0 -141 43 -141 187v381h78v-361c0 -58 10 -143 73 -143c48 0 111 47 142 84z" />
    <glyph glyph-name="v" unicode="v" horiz-adv-x="446" 
d="M438 552l-156 -552h-114l-160 552h76l142 -480l138 480h74z" />
    <glyph glyph-name="w" unicode="w" horiz-adv-x="665" 
d="M657 552l-146 -552h-77l-100 438h-2l-103 -438h-79l-142 552h76l106 -449h2l106 449h76l101 -449h2l103 449h77z" />
    <glyph glyph-name="x" unicode="x" horiz-adv-x="458" 
d="M410 552l-144 -261l180 -291h-94l-133 221l-122 -221h-85l162 291l-162 261h93l114 -194l108 194h83z" />
    <glyph glyph-name="y" unicode="y" horiz-adv-x="456" 
d="M448 552l-183 -574c-30 -95 -79 -169 -189 -169c-22 0 -39 4 -60 11l12 66c14 -4 29 -8 45 -8c79 0 105 66 125 132l-190 542h79l150 -431l137 431h74z" />
    <glyph glyph-name="z" unicode="z" horiz-adv-x="464" 
d="M417 552v-49l-276 -437h276v-66h-371v57l273 429h-248v66h346z" />
    <glyph glyph-name="braceleft" unicode="{" horiz-adv-x="333" 
d="M126 458v176c0 102 34 146 157 144v-2c-58 -18 -79 -54 -79 -121v-178c0 -75 -25 -120 -91 -135v-2c66 -15 91 -60 91 -135v-178c0 -67 21 -103 79 -121v-2c-123 -2 -157 42 -157 144v176c0 61 -9 103 -77 116v2c68 13 77 55 77 116z" />
    <glyph glyph-name="bar" unicode="|" horiz-adv-x="222" 
d="M72 -250v1000h78v-1000h-78z" />
    <glyph glyph-name="braceright" unicode="}" horiz-adv-x="333" 
d="M207 634v-176c0 -61 9 -103 77 -116v-2c-68 -13 -77 -55 -77 -116v-176c0 -102 -34 -146 -157 -144v2c58 18 79 54 79 121v178c0 75 25 120 91 135v2c-66 15 -91 60 -91 135v178c0 67 -21 103 -79 121v2c123 2 157 -42 157 -144z" />
    <glyph glyph-name="asciitilde" unicode="~" horiz-adv-x="660" 
d="M540 358l40 -44c-28 -59 -73 -104 -140 -104c-34 0 -78 18 -120 36c-41 18 -78 36 -99 36c-53 0 -85 -55 -108 -89l-33 57c29 48 70 98 141 98c35 0 77 -18 117 -36s78 -36 103 -36c45 0 80 51 99 82z" />
    <glyph glyph-name="exclamdown" unicode="&#xa1;" horiz-adv-x="179" 
d="M40 -191l22 494h55l22 -494h-99zM39 435v117h101v-117h-101z" />
    <glyph glyph-name="cent" unicode="&#xa2;" 
d="M479 545l-66 -30c-19 51 -49 106 -111 104c-120 0 -143 -132 -143 -226s23 -226 143 -226c67 3 105 57 129 111l63 -28c-29 -73 -91 -141 -172 -147v-92h-70v94c-90 15 -171 110 -171 288c0 112 28 254 171 287v87h70v-84c79 -5 132 -67 157 -138z" />
    <glyph glyph-name="sterling" unicode="&#xa3;" 
d="M234 104c-27 16 -52 32 -85 32c-26 0 -56 -18 -56 -46s29 -43 53 -43c41 0 64 28 88 57zM286 445h160v-70h-141c11 -48 25 -98 25 -148c0 -32 -6 -63 -13 -95c106 -73 115 -73 129 -73c41 0 49 42 60 73l62 -21c-13 -63 -47 -127 -120 -127c-42 0 -52 4 -162 81
c-38 -49 -77 -81 -142 -81c-63 0 -121 38 -121 106c0 67 53 110 118 110c40 0 76 -13 112 -30l3 46c0 54 -15 109 -35 159h-137v70h118c-11 43 -20 87 -20 132c0 108 68 217 186 217c84 0 144 -56 174 -130l-64 -30c-22 46 -49 91 -107 91c-79 0 -111 -76 -111 -144
c0 -49 10 -90 26 -136z" />
    <glyph glyph-name="fraction" unicode="&#x2044;" horiz-adv-x="111" 
d="M235 778h62l-421 -778h-63z" />
    <glyph glyph-name="yen" unicode="&#xa5;" 
d="M557 778l-165 -276h130v-70h-174l-15 -28v-58h189v-70h-189v-276h-82v276h-198v70h198v58l-18 28h-180v70h137l-172 276h93l182 -300l173 300h91z" />
    <glyph glyph-name="florin" unicode="&#x192;" 
d="M351 521h97l-7 -70h-98l-49 -459c-11 -127 -81 -156 -163 -156h-44l7 73c13 -4 25 -6 38 -6c78 0 77 52 83 114l46 434h-85l8 70h84l10 96c14 129 57 177 162 177h50l-9 -73c-12 4 -25 6 -38 6c-77 0 -76 -52 -83 -114z" />
    <glyph glyph-name="section" unicode="&#xa7;" horiz-adv-x="544" 
d="M232 233l123 -57c41 23 75 64 75 113c0 60 -59 94 -107 117l-123 59c-38 -25 -76 -69 -76 -116c0 -60 60 -93 108 -116zM476 621l-69 -16c-16 72 -63 119 -141 119c-52 0 -113 -33 -113 -90c0 -156 344 -121 344 -338c0 -69 -35 -114 -90 -152c44 -36 73 -73 73 -133
c0 -102 -86 -173 -204 -173c-123 0 -197 59 -230 182l65 20c22 -79 72 -132 158 -132c63 0 134 28 134 102c0 145 -346 123 -346 328c0 70 41 116 91 157c-44 38 -66 71 -66 131c0 101 87 168 183 168c111 0 184 -68 211 -173z" />
    <glyph glyph-name="currency" unicode="&#xa4;" 
d="M42 215l43 42c-32 47 -48 91 -48 148c0 59 14 103 48 151l-43 43l52 53l44 -43c45 34 98 49 154 49c55 0 101 -18 146 -49l44 43l52 -53l-43 -43c34 -49 48 -95 48 -156c0 -56 -17 -97 -48 -143l43 -42l-52 -53l-44 43c-45 -33 -98 -50 -155 -50c-55 0 -101 19 -145 50
l-44 -43zM292 586c-104 2 -183 -77 -181 -181c-2 -97 79 -178 175 -178c100 0 179 79 179 181c0 95 -76 180 -173 178z" />
    <glyph glyph-name="quotesingle" unicode="'" horiz-adv-x="222" 
d="M83 552v226h55v-226h-55z" />
    <glyph glyph-name="quotedblleft" unicode="&#x201c;" horiz-adv-x="352" 
d="M47 507v109l67 162h50l-50 -154h34v-117h-101zM204 507v109l67 162h50l-50 -154h34v-117h-101z" />
    <glyph glyph-name="guillemotleft" unicode="&#xab;" horiz-adv-x="420" 
d="M303 146l-117 142l117 141h78l-117 -141l117 -142h-78zM156 146l-117 142l117 141h78l-117 -141l117 -142h-78z" />
    <glyph glyph-name="guilsinglleft" unicode="&#x2039;" horiz-adv-x="273" 
d="M156 146l-117 142l117 141h78l-117 -141l117 -142h-78z" />
    <glyph glyph-name="guilsinglright" unicode="&#x203a;" horiz-adv-x="273" 
d="M117 146h-78l117 142l-117 141h78l117 -141z" />
    <glyph glyph-name="endash" unicode="&#x2013;" horiz-adv-x="500" 
d="M0 323h500v-70h-500v70z" />
    <glyph glyph-name="dagger" unicode="&#x2020;" horiz-adv-x="544" 
d="M233 -148v646h-175v70h175v210h78v-210h175v-70h-175v-646h-78z" />
    <glyph glyph-name="daggerdbl" unicode="&#x2021;" horiz-adv-x="544" 
d="M233 517h-175v70h175v191h78v-191h175v-70h-175v-404h175v-70h-175v-191h-78v191h-175v70h175v404z" />
    <glyph glyph-name="periodcentered" unicode="&#xb7;" horiz-adv-x="288" 
d="M194 346v-117h-101v117h101z" />
    <glyph glyph-name="paragraph" unicode="&#xb6;" horiz-adv-x="530" 
d="M479 778v-949h-60v894h-60v-894h-60v559h-24c-199 0 -240 102 -240 192c0 120 77 198 205 198h239zM281 443h18v280h-23c-163 0 -163 -110 -163 -139c0 -122 77 -141 168 -141z" />
    <glyph glyph-name="bullet" unicode="&#x2022;" horiz-adv-x="500" 
d="M430 387c0 -98 -81 -179 -181 -179c-98 0 -179 81 -179 179c0 100 81 181 179 181c100 0 181 -81 181 -181z" />
    <glyph glyph-name="quotesinglbase" unicode="&#x201a;" horiz-adv-x="195" 
d="M148 117v-109l-67 -162h-50l50 154h-34v117h101z" />
    <glyph glyph-name="quotedblbase" unicode="&#x201e;" horiz-adv-x="352" 
d="M148 117v-109l-67 -162h-50l50 154h-34v117h101zM305 117v-109l-67 -162h-50l50 154h-34v117h101z" />
    <glyph glyph-name="quotedblright" unicode="&#x201d;" horiz-adv-x="352" 
d="M148 778v-109l-67 -162h-50l50 154h-34v117h101zM305 778v-109l-67 -162h-50l50 154h-34v117h101z" />
    <glyph glyph-name="guillemotright" unicode="&#xbb;" horiz-adv-x="420" 
d="M117 146h-78l117 142l-117 141h78l117 -141zM264 146h-78l117 142l-117 141h78l117 -141z" />
    <glyph glyph-name="ellipsis" unicode="&#x2026;" horiz-adv-x="1000" 
d="M217 117v-117h-101v117h101zM550 117v-117h-101v117h101zM883 117v-117h-101v117h101z" />
    <glyph glyph-name="perthousand" unicode="&#x2030;" horiz-adv-x="1031" 
d="M658 187c0 -94 -25 -203 -133 -203s-133 109 -133 203s25 203 133 203s133 -109 133 -203zM596 187c0 64 -4 148 -71 148s-71 -84 -71 -148s4 -148 71 -148s71 84 71 148zM994 187c0 -94 -25 -203 -133 -203s-133 109 -133 203s25 203 133 203s133 -109 133 -203z
M932 187c0 64 -4 148 -71 148s-71 -84 -71 -148s4 -148 71 -148s71 84 71 148zM304 591c0 -94 -25 -203 -133 -203s-133 109 -133 203s25 203 133 203s133 -109 133 -203zM242 591c0 64 -4 148 -71 148s-71 -84 -71 -148s4 -148 71 -148s71 84 71 148zM527 778h64l-421 -778
h-65z" />
    <glyph glyph-name="questiondown" unicode="&#xbf;" horiz-adv-x="354" 
d="M178 303h63v-37c0 -152 -137 -177 -137 -290c0 -46 22 -96 76 -96c49 0 69 37 90 75l62 -33c-28 -64 -82 -113 -155 -113c-95 0 -155 64 -155 164c0 135 156 208 156 303v27zM159 435v117h101v-117h-101z" />
    <glyph glyph-name="grave" unicode="`" horiz-adv-x="318" 
d="M132 778l70 -144h-56l-106 144h92z" />
    <glyph glyph-name="acute" unicode="&#xb4;" horiz-adv-x="318" 
d="M116 634l70 144h92l-106 -144h-56z" />
    <glyph glyph-name="circumflex" unicode="&#x2c6;" horiz-adv-x="430" 
d="M243 778l109 -144h-78l-59 80l-62 -80h-75l108 144h57z" />
    <glyph glyph-name="tilde" unicode="&#x2dc;" horiz-adv-x="490" 
d="M364 782l48 -25c-20 -35 -55 -80 -100 -80c-23 0 -47 10 -70 20c-23 9 -44 19 -62 19c-31 0 -44 -22 -59 -45l-43 30c25 38 57 76 106 76c22 0 43 -9 64 -18c20 -10 40 -19 57 -19c31 0 43 20 59 42z" />
    <glyph glyph-name="macron" unicode="&#xaf;" horiz-adv-x="506" 
d="M428 778v-70h-350v70h350z" />
    <glyph glyph-name="breve" unicode="&#x2d8;" horiz-adv-x="487" 
d="M78 778h51c16 -50 60 -93 114 -93s98 43 114 93h51c-15 -76 -85 -152 -165 -152s-150 76 -165 152z" />
    <glyph glyph-name="dotaccent" unicode="&#x2d9;" horiz-adv-x="233" 
d="M155 763v-85h-78v85h78z" />
    <glyph glyph-name="dieresis" unicode="&#xa8;" horiz-adv-x="404" 
d="M156 763v-85h-78v85h78zM326 763v-85h-78v85h78z" />
    <glyph glyph-name="ring" unicode="&#x2da;" horiz-adv-x="342" 
d="M78 701c0 51 42 93 93 93s93 -42 93 -93s-42 -93 -93 -93s-93 42 -93 93zM124 701c0 -25 21 -47 47 -47s47 22 47 47s-21 47 -47 47s-47 -22 -47 -47z" />
    <glyph glyph-name="cedilla" unicode="&#xb8;" horiz-adv-x="266" 
d="M186 -67l-59 -115h-51l35 115h75z" />
    <glyph glyph-name="hungarumlaut" unicode="&#x2dd;" horiz-adv-x="480" 
d="M147 778h93l-106 -144h-56zM309 778h93l-106 -144h-56z" />
    <glyph glyph-name="ogonek" unicode="&#x2db;" horiz-adv-x="325" 
d="M247 -128v-52c-20 -14 -45 -22 -69 -22c-57 0 -101 36 -101 95c0 49 37 92 83 107h87v-6c-71 0 -118 -40 -118 -85c0 -34 27 -58 60 -58c24 0 40 7 58 21z" />
    <glyph glyph-name="caron" unicode="&#x2c7;" horiz-adv-x="430" 
d="M187 634l-109 144h78l59 -80l62 80h75l-108 -144h-57z" />
    <glyph glyph-name="emdash" unicode="&#x2014;" horiz-adv-x="1000" 
d="M0 323h1000v-70h-1000v70z" />
    <glyph glyph-name="AE" unicode="&#xc6;" horiz-adv-x="924" 
d="M844 778v-70h-319v-265h225v-70h-225v-303h348v-70h-430v247h-225l-122 -247h-96l400 778h444zM443 317v392h-2l-189 -392h191z" />
    <glyph glyph-name="ordfeminine" unicode="&#xaa;" horiz-adv-x="320" 
d="M222 629l-20 -6c-41 -11 -125 -29 -125 -84c0 -27 23 -48 49 -48c37 0 73 20 96 48v90zM294 444h-65l-6 38c-30 -26 -60 -42 -100 -42c-58 0 -102 39 -102 98c0 94 115 117 186 135l15 4v12c0 39 -25 57 -63 57s-64 -25 -85 -54l-43 29c32 44 72 73 128 73
c68 0 123 -41 123 -111v-159c0 -28 0 -54 12 -80z" />
    <glyph glyph-name="Lslash" unicode="&#x141;" horiz-adv-x="507" 
d="M144 778v-329l183 103v-75l-183 -104v-303h332v-70h-414v338l-80 -45v73l80 46v366h82z" />
    <glyph glyph-name="Oslash" unicode="&#xd8;" horiz-adv-x="654" 
d="M575 815l56 -33l-84 -123c48 -67 62 -213 62 -270c0 -256 -120 -405 -282 -405c-76 0 -136 32 -179 78l-73 -108l-52 35l85 127c-47 81 -63 181 -63 273c0 256 120 405 282 405c77 0 136 -33 182 -83zM157 186l308 463c-34 47 -74 78 -138 78c-108 0 -200 -102 -200 -338
c0 -65 5 -133 30 -203zM497 585l-307 -458c37 -48 73 -76 137 -76c108 0 200 102 200 338c0 67 -4 130 -30 196z" />
    <glyph glyph-name="OE" unicode="&#x152;" horiz-adv-x="1005" 
d="M525 0v105h-2c-40 -78 -107 -121 -196 -121c-162 0 -282 149 -282 405s120 405 282 405c84 0 154 -41 198 -106v90h405v-70h-323v-265h223v-70h-223v-303h347v-70h-429zM327 727c-108 0 -200 -102 -200 -338s92 -338 200 -338s200 102 200 338s-92 338 -200 338z" />
    <glyph glyph-name="ordmasculine" unicode="&#xba;" horiz-adv-x="343" 
d="M171 435c-107 0 -146 86 -146 180c0 93 40 179 146 179s146 -86 146 -179c0 -94 -39 -180 -146 -180zM171 483c72 0 86 73 86 131s-14 132 -86 132s-86 -74 -86 -132s14 -131 86 -131z" />
    <glyph glyph-name="ae" unicode="&#xe6;" horiz-adv-x="821" 
d="M378 153l-14 153c-241 -53 -244 -121 -244 -162c0 -54 34 -94 90 -94c70 0 128 50 168 103zM719 145l56 -37c-30 -71 -104 -124 -199 -124c-75 0 -141 37 -177 107c-45 -58 -116 -107 -197 -107c-91 0 -155 72 -155 161c0 61 13 165 317 223v35c0 64 -41 99 -107 99
c-60 0 -105 -35 -132 -85l-58 41c48 69 104 110 191 110c67 0 120 -31 155 -83c35 50 87 83 163 83c159 0 205 -170 194 -305h-333c0 -158 67 -213 147 -213c58 0 107 47 135 95zM434 329h258c3 79 -37 173 -126 173s-130 -94 -132 -173z" />
    <glyph glyph-name="dotlessi" unicode="&#x131;" horiz-adv-x="202" 
d="M140 552v-552h-78v552h78z" />
    <glyph glyph-name="lslash" unicode="&#x142;" horiz-adv-x="202" 
d="M140 451l78 40v-70l-78 -41v-380h-78v347l-79 -39v68l79 41v361h78v-327z" />
    <glyph glyph-name="oslash" unicode="&#xf8;" horiz-adv-x="534" 
d="M445 584l54 -32l-57 -78c37 -61 46 -134 46 -198c0 -207 -98 -292 -221 -292c-48 0 -97 15 -126 42l-60 -90l-46 35l64 101c-40 56 -53 134 -53 204c0 207 98 292 221 292c52 0 96 -15 136 -48zM146 140l213 321c-20 26 -54 41 -92 41c-120 0 -143 -132 -143 -226
c0 -39 4 -96 22 -136zM391 401l-210 -315c23 -28 53 -36 86 -36c120 0 143 132 143 226c0 40 -5 86 -19 125z" />
    <glyph glyph-name="oe" unicode="&#x153;" horiz-adv-x="873" 
d="M486 326h258c3 79 -37 176 -126 176s-130 -97 -132 -176zM267 50c120 0 143 132 143 226s-23 226 -143 226s-143 -132 -143 -226s23 -226 143 -226zM822 260h-333c0 -155 67 -210 147 -210c58 0 107 47 135 95l56 -37c-30 -71 -104 -124 -199 -124
c-90 0 -151 52 -181 130c-30 -83 -96 -130 -180 -130c-123 0 -221 85 -221 292s98 292 221 292c85 0 148 -51 180 -126c28 77 89 126 181 126c159 0 205 -169 194 -308z" />
    <glyph glyph-name="germandbls" unicode="&#xdf;" horiz-adv-x="520" 
d="M206 426v70c79 -7 141 28 141 114c0 61 -29 118 -98 118c-34 0 -109 -12 -109 -112v-616h-78v589c0 181 118 205 178 205c114 0 181 -70 181 -182c0 -65 -28 -108 -83 -142c101 -37 128 -128 128 -226c0 -199 -119 -260 -192 -260c-25 0 -48 7 -71 22v67
c21 -14 43 -21 66 -21c64 0 115 92 115 195c0 104 -33 189 -178 179z" />
    <glyph glyph-name="onesuperior" unicode="&#xb9;" horiz-adv-x="345" 
d="M207 787v-419h69v-50h-199v50h70v357l-78 -7v37l90 32h48z" />
    <glyph glyph-name="logicalnot" unicode="&#xac;" horiz-adv-x="660" 
d="M510 112v218h-430v70h500v-288h-70z" />
    <glyph glyph-name="mu" unicode="&#xb5;" horiz-adv-x="491" 
d="M353 132v420h78v-552h-78v57c-46 -37 -89 -73 -152 -73c-28 0 -50 3 -63 16v-191h-78v743h78v-361c0 -58 10 -143 73 -143c48 0 111 47 142 84z" />
    <glyph glyph-name="trademark" unicode="&#x2122;" horiz-adv-x="940" 
d="M351 778v-45h-130v-376h-62v376h-130v45h322zM524 778l119 -311h2l117 311h97v-421h-62v351h-2l-131 -351h-43l-130 351h-2v-351h-62v421h97z" />
    <glyph glyph-name="Eth" unicode="&#xd0;" horiz-adv-x="643" 
d="M77 778h192c226 0 328 -163 328 -385c0 -248 -102 -393 -349 -393h-171v373h-82v70h82v335zM159 373v-303h77c194 2 279 100 279 326c0 199 -80 310 -241 312h-115v-265h164v-70h-164z" />
    <glyph glyph-name="onehalf" unicode="&#xbd;" horiz-adv-x="864" 
d="M595 778h62l-421 -778h-63zM581 50h230v-50h-294v50c74 163 233 180 233 295c0 46 -25 81 -78 81c-56 0 -83 -41 -91 -88l-56 12c15 71 69 126 151 126c81 0 134 -56 134 -129c0 -140 -174 -173 -229 -297zM207 787v-419h69v-50h-199v50h70v357l-78 -8v38l90 32h48z" />
    <glyph glyph-name="plusminus" unicode="&#xb1;" horiz-adv-x="660" 
d="M295 526h70v-155h215v-70h-215v-155h-70v155h-215v70h215v155zM80 26v70h500v-70h-500z" />
    <glyph glyph-name="Thorn" unicode="&#xde;" horiz-adv-x="562" 
d="M62 778h82v-175h132c194 0 255 -123 255 -213c0 -95 -56 -215 -268 -215h-119v-175h-82v778zM144 533v-288h68c107 0 237 4 237 144c0 148 -140 144 -248 144h-57z" />
    <glyph glyph-name="onequarter" unicode="&#xbc;" horiz-adv-x="864" 
d="M725 0h-60v112h-200v42l181 313h79v-305h70v-50h-70v-112zM595 778h62l-421 -778h-63zM665 162v229h-2l-126 -229h128zM207 787v-419h69v-50h-199v50h70v357l-78 -8v38l90 32h48z" />
    <glyph glyph-name="divide" unicode="&#xf7;" horiz-adv-x="660" 
d="M580 311v-70h-500v70h500zM381 26h-101v117h101v-117zM381 409h-101v117h101v-117z" />
    <glyph glyph-name="brokenbar" unicode="&#xa6;" horiz-adv-x="222" 
d="M150 675v-350h-78v350h78zM72 -175v350h78v-350h-78z" />
    <glyph glyph-name="degree" unicode="&#xb0;" horiz-adv-x="400" 
d="M350 644c0 -83 -68 -150 -150 -150c-83 0 -150 67 -150 150c-1 82 67 150 150 150c82 0 150 -68 150 -150zM300 644c0 55 -45 100 -101 100c-55 0 -100 -45 -99 -100c0 -56 44 -100 100 -100c55 0 100 44 100 100z" />
    <glyph glyph-name="thorn" unicode="&#xfe;" horiz-adv-x="529" 
d="M140 411v-256c22 -47 75 -103 130 -103c54 0 131 53 131 215c0 83 -23 233 -132 233c-60 0 -105 -41 -129 -89zM140 63v-234h-78v949h78v-283c36 38 85 73 138 73c95 0 205 -86 205 -303c0 -212 -127 -281 -202 -281c-61 0 -104 33 -141 79z" />
    <glyph glyph-name="threequarters" unicode="&#xbe;" horiz-adv-x="864" 
d="M735 0h-60v112h-200v42l181 313h79v-305h70v-50h-70v-112zM675 162v229h-2l-126 -229h128zM625 778h62l-421 -778h-63zM146 541l-33 -4v52l42 -4c62 0 99 36 99 83c0 52 -30 76 -82 76c-39 0 -60 -18 -84 -49l-51 25c30 44 80 74 145 74c83 0 132 -55 132 -120
c0 -55 -24 -85 -75 -109c58 -18 88 -61 88 -117c0 -87 -64 -140 -155 -140c-73 0 -123 33 -154 88l54 22c27 -39 51 -60 100 -60c56 0 95 26 95 84c0 76 -46 99 -121 99z" />
    <glyph glyph-name="twosuperior" unicode="&#xb2;" horiz-adv-x="345" 
d="M89 368h230v-50h-294v50c74 163 233 180 233 295c0 46 -25 81 -78 81c-56 0 -83 -41 -91 -88l-56 12c15 71 69 126 151 126c81 0 134 -56 134 -129c0 -140 -174 -173 -229 -297z" />
    <glyph glyph-name="registered" unicode="&#xae;" horiz-adv-x="840" 
d="M420 -16c-224 0 -405 182 -405 405s181 405 405 405s405 -182 405 -405s-181 -405 -405 -405zM420 46c193 0 343 150 343 343s-150 343 -343 343s-343 -150 -343 -343s150 -343 343 -343zM259 633h169c139 0 169 -78 169 -142c0 -60 -42 -114 -114 -128l104 -236h-68
l-99 227h-99v-227h-62v506zM321 578v-169h82c103 0 120 36 120 83c0 65 -42 86 -109 86h-93z" />
    <glyph glyph-name="minus" unicode="&#x2212;" horiz-adv-x="660" 
d="M80 241v70h500v-70h-500z" />
    <glyph glyph-name="eth" unicode="&#xf0;" horiz-adv-x="535" 
d="M267 50c120 0 143 132 143 226s-23 226 -143 226s-143 -132 -143 -226s23 -226 143 -226zM449 769l27 -43l-105 -45c94 -111 117 -217 117 -337c0 -330 -130 -360 -221 -360c-123 0 -221 85 -221 292s98 292 221 292c53 0 93 -23 129 -68c-24 70 -53 116 -90 154
l-146 -61l-27 43l134 56c-27 25 -57 48 -91 70l76 16c30 -20 55 -39 78 -59z" />
    <glyph glyph-name="multiply" unicode="&#xd7;" horiz-adv-x="660" 
d="M80 476l50 50l200 -200l200 200l50 -50l-200 -200l200 -200l-50 -50l-200 200l-200 -200l-50 50l200 200z" />
    <glyph glyph-name="threesuperior" unicode="&#xb3;" horiz-adv-x="345" 
d="M146 541l-33 -4v52l42 -4c62 0 99 36 99 83c0 52 -30 76 -82 76c-39 0 -60 -18 -84 -49l-51 25c30 44 80 74 145 74c83 0 132 -55 132 -120c0 -55 -24 -85 -75 -109c58 -18 88 -61 88 -117c0 -87 -64 -140 -155 -140c-73 0 -123 33 -154 88l54 22c27 -39 51 -60 100 -60
c56 0 95 26 95 84c0 76 -46 99 -121 99z" />
    <glyph glyph-name="copyright" unicode="&#xa9;" horiz-adv-x="840" 
d="M420 -16c-224 0 -405 182 -405 405s181 405 405 405s405 -182 405 -405s-181 -405 -405 -405zM420 46c193 0 343 150 343 343s-150 343 -343 343s-343 -150 -343 -343s150 -343 343 -343zM595 501l-60 -12c-15 59 -43 109 -118 109c-116 0 -128 -131 -128 -208
s12 -208 128 -208c72 0 105 49 118 108l60 -13c-19 -83 -80 -150 -178 -150c-113 0 -206 96 -206 263c0 166 93 263 206 263c97 0 156 -66 178 -152z" />
    <glyph glyph-name="Aacute" unicode="&#xc1;" horiz-adv-x="559" 
d="M335 778l224 -778h-84l-71 248h-253l-67 -248h-84l219 778h116zM385 318l-109 408h-2l-102 -408h213zM237 860l70 144h92l-106 -144h-56z" />
    <glyph glyph-name="Acircumflex" unicode="&#xc2;" horiz-adv-x="559" 
d="M335 778l224 -778h-84l-71 248h-253l-67 -248h-84l219 778h116zM385 318l-109 408h-2l-102 -408h213zM308 1004l109 -144h-78l-59 80l-62 -80h-75l108 144h57z" />
    <glyph glyph-name="Adieresis" unicode="&#xc4;" horiz-adv-x="559" 
d="M335 778l224 -778h-84l-71 248h-253l-67 -248h-84l219 778h116zM385 318l-109 408h-2l-102 -408h213zM234 989v-85h-78v85h78zM404 989v-85h-78v85h78z" />
    <glyph glyph-name="Agrave" unicode="&#xc0;" horiz-adv-x="559" 
d="M335 778l224 -778h-84l-71 248h-253l-67 -248h-84l219 778h116zM385 318l-109 408h-2l-102 -408h213zM253 1004l70 -144h-56l-106 144h92z" />
    <glyph glyph-name="Aring" unicode="&#xc5;" horiz-adv-x="559" 
d="M335 778l224 -778h-84l-71 248h-253l-67 -248h-84l219 778h116zM385 318l-109 408h-2l-102 -408h213zM187 927c0 51 42 93 93 93s93 -42 93 -93s-42 -93 -93 -93s-93 42 -93 93zM233 927c0 -25 21 -47 47 -47s47 22 47 47s-21 47 -47 47s-47 -22 -47 -47z" />
    <glyph glyph-name="Atilde" unicode="&#xc3;" horiz-adv-x="559" 
d="M335 778l224 -778h-84l-71 248h-253l-67 -248h-84l219 778h116zM385 318l-109 408h-2l-102 -408h213zM399 1008l48 -25c-20 -35 -55 -80 -100 -80c-23 0 -47 10 -70 20c-23 9 -44 19 -62 19c-31 0 -44 -22 -59 -45l-43 30c25 38 57 76 106 76c22 0 43 -9 64 -18
c20 -10 40 -19 57 -19c31 0 43 20 59 42z" />
    <glyph glyph-name="Ccedilla" unicode="&#xc7;" horiz-adv-x="622" 
d="M568 560l-73 -18c-21 90 -61 185 -168 185c-108 0 -200 -102 -200 -338s92 -338 200 -338c102 0 149 93 168 185l76 -20c-22 -128 -104 -232 -244 -232c-162 0 -282 149 -282 405s120 405 282 405c138 0 218 -102 241 -234zM364 -67l-59 -115h-51l35 115h75z" />
    <glyph glyph-name="Eacute" unicode="&#xc9;" horiz-adv-x="558" 
d="M484 778v-70h-340v-265h243v-70h-243v-303h363v-70h-445v778h422zM236 860l70 144h92l-106 -144h-56z" />
    <glyph glyph-name="Ecircumflex" unicode="&#xca;" horiz-adv-x="558" 
d="M484 778v-70h-340v-265h243v-70h-243v-303h363v-70h-445v778h422zM307 1004l109 -144h-78l-59 80l-62 -80h-75l108 144h57z" />
    <glyph glyph-name="Edieresis" unicode="&#xcb;" horiz-adv-x="558" 
d="M484 778v-70h-340v-265h243v-70h-243v-303h363v-70h-445v778h422zM233 989v-85h-78v85h78zM403 989v-85h-78v85h78z" />
    <glyph glyph-name="Egrave" unicode="&#xc8;" horiz-adv-x="558" 
d="M484 778v-70h-340v-265h243v-70h-243v-303h363v-70h-445v778h422zM252 1004l70 -144h-56l-106 144h92z" />
    <glyph glyph-name="Iacute" unicode="&#xcd;" horiz-adv-x="206" 
d="M144 778v-778h-82v778h82zM60 860l70 144h92l-106 -144h-56z" />
    <glyph glyph-name="Icircumflex" unicode="&#xce;" horiz-adv-x="206" 
d="M144 778v-778h-82v778h82zM131 1004l109 -144h-78l-59 80l-62 -80h-75l108 144h57z" />
    <glyph glyph-name="Idieresis" unicode="&#xcf;" horiz-adv-x="206" 
d="M144 778v-778h-82v778h82zM57 989v-85h-78v85h78zM227 989v-85h-78v85h78z" />
    <glyph glyph-name="Igrave" unicode="&#xcc;" horiz-adv-x="206" 
d="M144 778v-778h-82v778h82zM76 1004l70 -144h-56l-106 144h92z" />
    <glyph glyph-name="Ntilde" unicode="&#xd1;" horiz-adv-x="648" 
d="M144 707v-707h-82v778h130l310 -613h2v613h82v-778h-82l-358 707h-2zM443 1008l48 -25c-20 -35 -55 -80 -100 -80c-23 0 -47 10 -70 20c-23 9 -44 19 -62 19c-31 0 -44 -22 -59 -45l-43 30c25 38 57 76 106 76c22 0 43 -9 64 -18c20 -10 40 -19 57 -19c31 0 43 20 59 42z
" />
    <glyph glyph-name="Oacute" unicode="&#xd3;" horiz-adv-x="654" 
d="M327 794c162 0 282 -149 282 -405s-120 -405 -282 -405s-282 149 -282 405s120 405 282 405zM327 727c-108 0 -200 -102 -200 -338s92 -338 200 -338s200 102 200 338s-92 338 -200 338zM284 860l70 144h92l-106 -144h-56z" />
    <glyph glyph-name="Ocircumflex" unicode="&#xd4;" horiz-adv-x="654" 
d="M327 794c162 0 282 -149 282 -405s-120 -405 -282 -405s-282 149 -282 405s120 405 282 405zM327 727c-108 0 -200 -102 -200 -338s92 -338 200 -338s200 102 200 338s-92 338 -200 338zM355 1004l109 -144h-78l-59 80l-62 -80h-75l108 144h57z" />
    <glyph glyph-name="Odieresis" unicode="&#xd6;" horiz-adv-x="654" 
d="M327 794c162 0 282 -149 282 -405s-120 -405 -282 -405s-282 149 -282 405s120 405 282 405zM327 727c-108 0 -200 -102 -200 -338s92 -338 200 -338s200 102 200 338s-92 338 -200 338zM281 989v-85h-78v85h78zM451 989v-85h-78v85h78z" />
    <glyph glyph-name="Ograve" unicode="&#xd2;" horiz-adv-x="654" 
d="M327 794c162 0 282 -149 282 -405s-120 -405 -282 -405s-282 149 -282 405s120 405 282 405zM327 727c-108 0 -200 -102 -200 -338s92 -338 200 -338s200 102 200 338s-92 338 -200 338zM300 1004l70 -144h-56l-106 144h92z" />
    <glyph glyph-name="Otilde" unicode="&#xd5;" horiz-adv-x="654" 
d="M327 794c162 0 282 -149 282 -405s-120 -405 -282 -405s-282 149 -282 405s120 405 282 405zM327 727c-108 0 -200 -102 -200 -338s92 -338 200 -338s200 102 200 338s-92 338 -200 338zM446 1008l48 -25c-20 -35 -55 -80 -100 -80c-23 0 -47 10 -70 20
c-23 9 -44 19 -62 19c-31 0 -44 -22 -59 -45l-43 30c25 38 57 76 106 76c22 0 43 -9 64 -18c20 -10 40 -19 57 -19c31 0 43 20 59 42z" />
    <glyph glyph-name="Scaron" unicode="&#x160;" horiz-adv-x="591" 
d="M538 591l-74 -23c-26 87 -62 159 -162 159c-71 0 -137 -57 -137 -133c0 -194 379 -118 379 -390c0 -136 -101 -220 -232 -220c-139 0 -238 85 -265 220l79 19c19 -92 89 -172 187 -172c80 0 149 61 149 144c0 216 -379 126 -379 387c0 128 100 212 224 212
c123 0 202 -91 231 -203zM268 860l-109 144h78l59 -80l62 80h75l-108 -144h-57z" />
    <glyph glyph-name="Uacute" unicode="&#xda;" horiz-adv-x="610" 
d="M552 778v-534c0 -209 -137 -260 -247 -260s-247 51 -247 260v534h82v-477c0 -121 9 -239 165 -239s165 118 165 239v477h82zM262 860l70 144h92l-106 -144h-56z" />
    <glyph glyph-name="Ucircumflex" unicode="&#xdb;" horiz-adv-x="610" 
d="M552 778v-534c0 -209 -137 -260 -247 -260s-247 51 -247 260v534h82v-477c0 -121 9 -239 165 -239s165 118 165 239v477h82zM333 1004l109 -144h-78l-59 80l-62 -80h-75l108 144h57z" />
    <glyph glyph-name="Udieresis" unicode="&#xdc;" horiz-adv-x="610" 
d="M552 778v-534c0 -209 -137 -260 -247 -260s-247 51 -247 260v534h82v-477c0 -121 9 -239 165 -239s165 118 165 239v477h82zM259 989v-85h-78v85h78zM429 989v-85h-78v85h78z" />
    <glyph glyph-name="Ugrave" unicode="&#xd9;" horiz-adv-x="610" 
d="M552 778v-534c0 -209 -137 -260 -247 -260s-247 51 -247 260v534h82v-477c0 -121 9 -239 165 -239s165 118 165 239v477h82zM278 1004l70 -144h-56l-106 144h92z" />
    <glyph glyph-name="Yacute" unicode="&#xdd;" horiz-adv-x="536" 
d="M536 778l-222 -452v-326h-82v326l-232 452h86l188 -373h2l177 373h83zM225 860l70 144h92l-106 -144h-56z" />
    <glyph glyph-name="Ydieresis" unicode="&#x178;" horiz-adv-x="536" 
d="M536 778l-222 -452v-326h-82v326l-232 452h86l188 -373h2l177 373h83zM222 989v-85h-78v85h78zM392 989v-85h-78v85h78z" />
    <glyph glyph-name="Zcaron" unicode="&#x17d;" horiz-adv-x="529" 
d="M490 778v-69l-351 -639h351v-70h-451v63l355 645h-319v70h415zM237 860l-109 144h78l59 -80l62 80h75l-108 -144h-57z" />
    <glyph glyph-name="aacute" unicode="&#xe1;" horiz-adv-x="500" 
d="M453 0h-85l-8 70c-45 -44 -95 -86 -160 -86c-85 0 -153 71 -153 158c0 158 166 192 288 225l25 7v31c0 63 -43 97 -105 97c-61 0 -103 -40 -135 -87l-55 41c46 66 106 112 190 112c75 0 183 -46 183 -172v-274c1 -41 -1 -83 15 -122zM360 310l-31 -9
c-74 -22 -209 -52 -209 -151c0 -46 36 -92 83 -92c62 0 119 43 157 90v162zM207 634l70 144h92l-106 -144h-56z" />
    <glyph glyph-name="acircumflex" unicode="&#xe2;" horiz-adv-x="500" 
d="M453 0h-85l-8 70c-45 -44 -95 -86 -160 -86c-85 0 -153 71 -153 158c0 158 166 192 288 225l25 7v31c0 63 -43 97 -105 97c-61 0 -103 -40 -135 -87l-55 41c46 66 106 112 190 112c75 0 183 -46 183 -172v-274c1 -41 -1 -83 15 -122zM360 310l-31 -9
c-74 -22 -209 -52 -209 -151c0 -46 36 -92 83 -92c62 0 119 43 157 90v162zM278 778l109 -144h-78l-59 80l-62 -80h-75l108 144h57z" />
    <glyph glyph-name="adieresis" unicode="&#xe4;" horiz-adv-x="500" 
d="M453 0h-85l-8 70c-45 -44 -95 -86 -160 -86c-85 0 -153 71 -153 158c0 158 166 192 288 225l25 7v31c0 63 -43 97 -105 97c-61 0 -103 -40 -135 -87l-55 41c46 66 106 112 190 112c75 0 183 -46 183 -172v-274c1 -41 -1 -83 15 -122zM360 310l-31 -9
c-74 -22 -209 -52 -209 -151c0 -46 36 -92 83 -92c62 0 119 43 157 90v162zM204 763v-85h-78v85h78zM374 763v-85h-78v85h78z" />
    <glyph glyph-name="agrave" unicode="&#xe0;" horiz-adv-x="500" 
d="M453 0h-85l-8 70c-45 -44 -95 -86 -160 -86c-85 0 -153 71 -153 158c0 158 166 192 288 225l25 7v31c0 63 -43 97 -105 97c-61 0 -103 -40 -135 -87l-55 41c46 66 106 112 190 112c75 0 183 -46 183 -172v-274c1 -41 -1 -83 15 -122zM360 310l-31 -9
c-74 -22 -209 -52 -209 -151c0 -46 36 -92 83 -92c62 0 119 43 157 90v162zM223 778l70 -144h-56l-106 144h92z" />
    <glyph glyph-name="aring" unicode="&#xe5;" horiz-adv-x="500" 
d="M453 0h-85l-8 70c-45 -44 -95 -86 -160 -86c-85 0 -153 71 -153 158c0 158 166 192 288 225l25 7v31c0 63 -43 97 -105 97c-61 0 -103 -40 -135 -87l-55 41c46 66 106 112 190 112c75 0 183 -46 183 -172v-274c1 -41 -1 -83 15 -122zM360 310l-31 -9
c-74 -22 -209 -52 -209 -151c0 -46 36 -92 83 -92c62 0 119 43 157 90v162zM157 701c0 51 42 93 93 93s93 -42 93 -93s-42 -93 -93 -93s-93 42 -93 93zM203 701c0 -25 21 -47 47 -47s47 22 47 47s-21 47 -47 47s-47 -22 -47 -47z" />
    <glyph glyph-name="atilde" unicode="&#xe3;" horiz-adv-x="500" 
d="M453 0h-85l-8 70c-45 -44 -95 -86 -160 -86c-85 0 -153 71 -153 158c0 158 166 192 288 225l25 7v31c0 63 -43 97 -105 97c-61 0 -103 -40 -135 -87l-55 41c46 66 106 112 190 112c75 0 183 -46 183 -172v-274c1 -41 -1 -83 15 -122zM360 310l-31 -9
c-74 -22 -209 -52 -209 -151c0 -46 36 -92 83 -92c62 0 119 43 157 90v162zM369 782l48 -25c-20 -35 -55 -80 -100 -80c-23 0 -47 10 -70 20c-23 9 -44 19 -62 19c-31 0 -44 -22 -59 -45l-43 30c25 38 57 76 106 76c22 0 43 -9 64 -18c20 -10 40 -19 57 -19
c31 0 43 20 59 42z" />
    <glyph glyph-name="ccedilla" unicode="&#xe7;" horiz-adv-x="505" 
d="M444 428l-66 -30c-19 51 -49 106 -111 104c-120 0 -143 -132 -143 -226s23 -226 143 -226c67 3 105 57 129 111l63 -28c-32 -84 -103 -149 -192 -149c-123 0 -221 85 -221 292s98 292 221 292c91 0 147 -57 177 -140zM306 -67l-59 -115h-51l35 115h75z" />
    <glyph glyph-name="eacute" unicode="&#xe9;" horiz-adv-x="512" 
d="M461 263h-333c0 -158 67 -213 147 -213c58 0 107 47 135 95l56 -37c-30 -71 -104 -124 -199 -124c-123 0 -221 85 -221 292s98 292 221 292c159 0 205 -170 194 -305zM130 329h249c2 71 -36 173 -118 173c-88 0 -130 -95 -131 -173zM213 634l70 144h92l-106 -144h-56z
" />
    <glyph glyph-name="ecircumflex" unicode="&#xea;" horiz-adv-x="512" 
d="M461 263h-333c0 -158 67 -213 147 -213c58 0 107 47 135 95l56 -37c-30 -71 -104 -124 -199 -124c-123 0 -221 85 -221 292s98 292 221 292c159 0 205 -170 194 -305zM130 329h249c2 71 -36 173 -118 173c-88 0 -130 -95 -131 -173zM284 778l109 -144h-78l-59 80l-62 -80
h-75l108 144h57z" />
    <glyph glyph-name="edieresis" unicode="&#xeb;" horiz-adv-x="512" 
d="M461 263h-333c0 -158 67 -213 147 -213c58 0 107 47 135 95l56 -37c-30 -71 -104 -124 -199 -124c-123 0 -221 85 -221 292s98 292 221 292c159 0 205 -170 194 -305zM130 329h249c2 71 -36 173 -118 173c-88 0 -130 -95 -131 -173zM210 763v-85h-78v85h78zM380 763v-85
h-78v85h78z" />
    <glyph glyph-name="egrave" unicode="&#xe8;" horiz-adv-x="512" 
d="M461 263h-333c0 -158 67 -213 147 -213c58 0 107 47 135 95l56 -37c-30 -71 -104 -124 -199 -124c-123 0 -221 85 -221 292s98 292 221 292c159 0 205 -170 194 -305zM130 329h249c2 71 -36 173 -118 173c-88 0 -130 -95 -131 -173zM229 778l70 -144h-56l-106 144h92z
" />
    <glyph glyph-name="iacute" unicode="&#xed;" horiz-adv-x="202" 
d="M140 552v-552h-78v552h78zM58 634l70 144h92l-106 -144h-56z" />
    <glyph glyph-name="icircumflex" unicode="&#xee;" horiz-adv-x="202" 
d="M140 552v-552h-78v552h78zM129 778l109 -144h-78l-59 80l-62 -80h-75l108 144h57z" />
    <glyph glyph-name="idieresis" unicode="&#xef;" horiz-adv-x="202" 
d="M140 552v-552h-78v552h78zM55 763v-85h-78v85h78zM225 763v-85h-78v85h78z" />
    <glyph glyph-name="igrave" unicode="&#xec;" horiz-adv-x="202" 
d="M140 552v-552h-78v552h78zM74 778l70 -144h-56l-106 144h92z" />
    <glyph glyph-name="ntilde" unicode="&#xf1;" horiz-adv-x="491" 
d="M138 420v-420h-78v552h78v-57c46 37 89 73 152 73c78 0 141 -43 141 -187v-381h-78v361c0 58 10 143 -73 143c-48 0 -111 -47 -142 -84zM365 782l48 -25c-20 -35 -55 -80 -100 -80c-23 0 -47 10 -70 20c-23 9 -44 19 -62 19c-31 0 -44 -22 -59 -45l-43 30
c25 38 57 76 106 76c22 0 43 -9 64 -18c20 -10 40 -19 57 -19c31 0 43 20 59 42z" />
    <glyph glyph-name="oacute" unicode="&#xf3;" horiz-adv-x="534" 
d="M267 -16c-123 0 -221 85 -221 292s98 292 221 292s221 -85 221 -292s-98 -292 -221 -292zM267 50c120 0 143 132 143 226s-23 226 -143 226s-143 -132 -143 -226s23 -226 143 -226zM224 634l70 144h92l-106 -144h-56z" />
    <glyph glyph-name="ocircumflex" unicode="&#xf4;" horiz-adv-x="534" 
d="M267 -16c-123 0 -221 85 -221 292s98 292 221 292s221 -85 221 -292s-98 -292 -221 -292zM267 50c120 0 143 132 143 226s-23 226 -143 226s-143 -132 -143 -226s23 -226 143 -226zM295 778l109 -144h-78l-59 80l-62 -80h-75l108 144h57z" />
    <glyph glyph-name="odieresis" unicode="&#xf6;" horiz-adv-x="534" 
d="M267 -16c-123 0 -221 85 -221 292s98 292 221 292s221 -85 221 -292s-98 -292 -221 -292zM267 50c120 0 143 132 143 226s-23 226 -143 226s-143 -132 -143 -226s23 -226 143 -226zM221 763v-85h-78v85h78zM391 763v-85h-78v85h78z" />
    <glyph glyph-name="ograve" unicode="&#xf2;" horiz-adv-x="534" 
d="M267 -16c-123 0 -221 85 -221 292s98 292 221 292s221 -85 221 -292s-98 -292 -221 -292zM267 50c120 0 143 132 143 226s-23 226 -143 226s-143 -132 -143 -226s23 -226 143 -226zM240 778l70 -144h-56l-106 144h92z" />
    <glyph glyph-name="otilde" unicode="&#xf5;" horiz-adv-x="534" 
d="M267 -16c-123 0 -221 85 -221 292s98 292 221 292s221 -85 221 -292s-98 -292 -221 -292zM267 50c120 0 143 132 143 226s-23 226 -143 226s-143 -132 -143 -226s23 -226 143 -226zM386 782l48 -25c-20 -35 -55 -80 -100 -80c-23 0 -47 10 -70 20c-23 9 -44 19 -62 19
c-31 0 -44 -22 -59 -45l-43 30c25 38 57 76 106 76c22 0 43 -9 64 -18c20 -10 40 -19 57 -19c31 0 43 20 59 42z" />
    <glyph glyph-name="scaron" unicode="&#x161;" horiz-adv-x="480" 
d="M423 472l-55 -43c-31 46 -68 73 -126 73c-51 0 -99 -26 -99 -82c0 -135 291 -76 291 -262c0 -108 -77 -174 -181 -174c-89 0 -161 39 -206 116l62 39c30 -57 78 -89 144 -89c57 0 108 31 108 94c0 139 -291 73 -291 271c0 95 78 153 169 153c77 0 141 -32 184 -96z
M212 634l-109 144h78l59 -80l62 80h75l-108 -144h-57z" />
    <glyph glyph-name="uacute" unicode="&#xfa;" horiz-adv-x="491" 
d="M353 132v420h78v-552h-78v57c-46 -37 -89 -73 -152 -73c-78 0 -141 43 -141 187v381h78v-361c0 -58 10 -143 73 -143c48 0 111 47 142 84zM203 634l70 144h92l-106 -144h-56z" />
    <glyph glyph-name="ucircumflex" unicode="&#xfb;" horiz-adv-x="491" 
d="M353 132v420h78v-552h-78v57c-46 -37 -89 -73 -152 -73c-78 0 -141 43 -141 187v381h78v-361c0 -58 10 -143 73 -143c48 0 111 47 142 84zM274 778l109 -144h-78l-59 80l-62 -80h-75l108 144h57z" />
    <glyph glyph-name="udieresis" unicode="&#xfc;" horiz-adv-x="491" 
d="M353 132v420h78v-552h-78v57c-46 -37 -89 -73 -152 -73c-78 0 -141 43 -141 187v381h78v-361c0 -58 10 -143 73 -143c48 0 111 47 142 84zM200 763v-85h-78v85h78zM370 763v-85h-78v85h78z" />
    <glyph glyph-name="ugrave" unicode="&#xf9;" horiz-adv-x="491" 
d="M353 132v420h78v-552h-78v57c-46 -37 -89 -73 -152 -73c-78 0 -141 43 -141 187v381h78v-361c0 -58 10 -143 73 -143c48 0 111 47 142 84zM219 778l70 -144h-56l-106 144h92z" />
    <glyph glyph-name="yacute" unicode="&#xfd;" horiz-adv-x="456" 
d="M448 552l-183 -574c-30 -95 -79 -169 -189 -169c-22 0 -39 4 -60 11l12 66c14 -4 29 -8 45 -8c79 0 105 66 125 132l-190 542h79l150 -431l137 431h74zM185 634l70 144h92l-106 -144h-56z" />
    <glyph glyph-name="ydieresis" unicode="&#xff;" horiz-adv-x="456" 
d="M448 552l-183 -574c-30 -95 -79 -169 -189 -169c-22 0 -39 4 -60 11l12 66c14 -4 29 -8 45 -8c79 0 105 66 125 132l-190 542h79l150 -431l137 431h74zM182 763v-85h-78v85h78zM352 763v-85h-78v85h78z" />
    <glyph glyph-name="zcaron" unicode="&#x17e;" horiz-adv-x="464" 
d="M417 552v-49l-276 -437h276v-66h-371v57l273 429h-248v66h346zM204 634l-109 144h78l59 -80l62 80h75l-108 -144h-57z" />
    <glyph glyph-name="Delta" unicode="&#x2206;" horiz-adv-x="672" 
d="M34 0v51l264 751h80l260 -750v-52h-604zM105 59h458l-157 446c-18 61 -56 153 -69 206h-5c-10 -45 -44 -130 -63 -190z" />
    <glyph glyph-name="Omega" unicode="&#x2126;" horiz-adv-x="746" 
d="M211 60v3c-77 74 -144 198 -144 356c0 225 135 374 310 374c182 0 301 -168 301 -369c0 -165 -73 -295 -145 -361v-3h159v-60h-245v44c82 61 160 191 160 366c-1 147 -77 322 -232 322c-145 0 -237 -143 -237 -324c0 -164 80 -306 160 -364v-44h-245v60h158z" />
    <glyph glyph-name="pi" unicode="&#x3c0;" horiz-adv-x="590" 
d="M560 518h-85v-357c0 -92 8 -133 16 -161h-68c-10 17 -18 63 -18 154v364h-194c-7 -150 -39 -411 -79 -518h-68c40 120 71 362 77 518c-67 0 -96 -6 -117 -14l-12 48c25 16 68 28 146 28h409z" />
    <glyph glyph-name="Euro" unicode="&#x20ac;" 
d="M529 744v-74c-31 30 -82 55 -156 55c-124 0 -183 -100 -195 -232h303l-19 -59h-290c-1 -12 -1 -31 -1 -44c0 -16 0 -33 1 -45h261l-20 -59h-234c14 -153 83 -235 194 -235c74 0 122 24 156 56v-76c-25 -23 -83 -46 -165 -46c-145 0 -237 93 -259 301h-76l19 59h51
c-1 11 -2 31 -2 45s1 31 2 44h-70l19 59h56c19 176 95 300 260 300c79 0 137 -25 165 -49z" />
    <glyph glyph-name="estimated" unicode="&#x212e;" horiz-adv-x="977" 
d="M938 378h-729c-3 0 -6 -1 -6 -5v-221c0 -9 4 -18 10 -25c70 -73 168 -120 275 -120c117 0 220 53 290 135h65c-80 -95 -211 -157 -356 -157c-248 0 -449 181 -449 404c0 224 201 405 449 405c249 0 451 -181 451 -405v-11zM772 406v222c0 10 -3 19 -10 27
c-71 69 -167 115 -274 115c-106 0 -203 -47 -274 -119c-7 -7 -11 -17 -11 -28v-217c0 -2 3 -7 6 -7h559c3 0 4 5 4 7z" />
    <glyph glyph-name="partialdiff" unicode="&#x2202;" horiz-adv-x="567" 
d="M107 759l-26 53c35 29 89 61 171 61c132 0 261 -128 261 -421c0 -269 -92 -463 -269 -463c-133 0 -198 122 -198 255c0 175 107 286 223 286c96 0 155 -69 173 -103h1c1 13 1 34 1 48c0 203 -91 337 -199 337c-64 0 -109 -27 -138 -53zM249 49h2c102 0 169 140 183 300
c-16 52 -73 122 -155 122c-89 0 -163 -102 -163 -226c0 -116 52 -196 133 -196z" />
    <glyph glyph-name="product" unicode="&#x220f;" horiz-adv-x="725" 
d="M696 715h-114v-823h-69v823h-302v-823h-69v823h-114v66h668v-66z" />
    <glyph glyph-name="summation" unicode="&#x2211;" horiz-adv-x="578" 
d="M553 -108h-528v49l286 394l-273 395v51h498v-62h-401v-4l256 -370l-277 -381v-4h439v-68z" />
    <glyph glyph-name="uni2219" unicode="&#x2219;" horiz-adv-x="288" 
d="M194 346v-117h-101v117h101z" />
    <glyph glyph-name="radical" unicode="&#x221a;" horiz-adv-x="599" 
d="M595 927l-232 -1096h-63l-170 525l-79 -30l-15 45l139 54l137 -420c6 -27 14 -61 18 -82h1c3 20 9 53 14 79l197 925h53z" />
    <glyph glyph-name="infinity" unicode="&#x221e;" horiz-adv-x="828" 
d="M773 326v-2c0 -102 -77 -167 -161 -167c-69 0 -122 43 -197 128c-56 -64 -115 -128 -203 -128c-86 0 -158 71 -158 164c0 96 70 167 166 167c81 0 142 -62 199 -129c57 63 111 129 201 129c92 0 153 -67 153 -162zM219 203h1c70 0 124 69 169 116
c-49 59 -99 124 -177 124c-69 0 -108 -58 -108 -124c1 -64 47 -116 115 -116zM614 443h-1c-73 0 -131 -81 -169 -119c72 -78 113 -121 172 -121c69 0 108 61 108 118c0 77 -47 122 -110 122z" />
    <glyph glyph-name="integral" unicode="&#x222b;" horiz-adv-x="375" 
d="M356 937l-13 -51c-9 6 -24 12 -38 12c-18 0 -40 -8 -54 -27c-27 -34 -37 -92 -37 -202c0 -173 14 -388 14 -567c0 -123 -22 -188 -47 -227c-22 -35 -60 -52 -100 -52c-26 0 -54 10 -66 17l13 53c10 -4 27 -13 48 -13c18 0 37 10 49 27c21 28 37 80 37 196
c0 180 -14 399 -14 573c0 121 15 189 56 233c25 29 61 43 96 43c21 0 45 -8 56 -15z" />
    <glyph glyph-name="approxequal" unicode="&#x2248;" horiz-adv-x="593" 
d="M513 471l30 -26c-27 -55 -69 -101 -134 -101c-43 0 -73 16 -124 45c-33 19 -64 37 -99 37c-50 0 -79 -38 -105 -81l-32 25c31 63 83 102 143 102c52 0 91 -29 120 -45c37 -20 62 -37 100 -37c43 0 71 28 101 81zM513 292l30 -26c-27 -55 -68 -101 -134 -101
c-43 0 -73 17 -124 46c-34 19 -64 36 -99 36c-50 0 -80 -38 -105 -81l-32 25c31 64 83 103 143 103c53 0 91 -29 120 -44c35 -20 62 -38 101 -38c43 0 70 28 100 80z" />
    <glyph glyph-name="notequal" unicode="&#x2260;" horiz-adv-x="593" 
d="M419 550l-48 -106h167v-48h-186l-73 -157h259v-48h-278l-57 -125l-38 17l49 108h-159v48h179l71 157h-250v48h270l56 123z" />
    <glyph glyph-name="lessequal" unicode="&#x2264;" horiz-adv-x="593" 
d="M535 113l-474 243v50l474 244v-59l-422 -207v-3l422 -209v-59zM538 18h-483v50h483v-50z" />
    <glyph glyph-name="greaterequal" unicode="&#x2265;" horiz-adv-x="593" 
d="M61 650l475 -244v-50l-475 -243v59l422 208v2l-422 209v59zM538 18h-483v50h483v-50z" />
    <glyph glyph-name="lozenge" unicode="&#x25ca;" horiz-adv-x="599" 
d="M540 390l-213 -436h-58l-210 436l213 437h58zM475 388l-155 317c-8 19 -15 43 -20 59h-2c-5 -17 -11 -38 -21 -59l-153 -313l155 -320c10 -22 16 -43 19 -56h4c3 13 11 41 18 56z" />
    <glyph glyph-name="uni02C9" unicode="&#x2c9;" horiz-adv-x="506" 
d="M428 778v-70h-350v70h350z" />
    <glyph glyph-name="uni00AD" unicode="&#xad;" horiz-adv-x="205" 
d="M0 323h205v-70h-205v70z" />
    <glyph glyph-name="uni03A9" unicode="&#x3a9;" horiz-adv-x="746" 
d="M211 60v3c-77 74 -144 198 -144 356c0 225 135 374 310 374c182 0 301 -168 301 -369c0 -165 -73 -295 -145 -361v-3h159v-60h-245v44c82 61 160 191 160 366c-1 147 -77 322 -232 322c-145 0 -237 -143 -237 -324c0 -164 80 -306 160 -364v-44h-245v60h158z" />
    <glyph glyph-name="uni00A0" unicode="&#xa0;" horiz-adv-x="288" 
 />
    <glyph glyph-name="afii61289" unicode="&#x2113;" horiz-adv-x="502" 
d="M443 151l34 -29c-43 -86 -108 -132 -190 -132c-121 0 -168 97 -171 213v15c-19 -16 -40 -34 -61 -52l-23 43c30 26 59 50 84 76v310c0 202 81 263 157 263c85 0 126 -76 126 -175c0 -142 -87 -278 -216 -412v-38c0 -136 55 -186 117 -186c67 0 117 56 143 104zM183 600
v-255c93 107 167 220 167 336c0 74 -22 122 -78 122c-41 0 -89 -52 -89 -203z" />
    <glyph glyph-name="uni03BC" unicode="&#x3bc;" horiz-adv-x="491" 
d="M353 132v420h78v-552h-78v57c-46 -37 -89 -73 -152 -73c-28 0 -50 3 -63 16v-191h-78v743h78v-361c0 -58 10 -143 73 -143c48 0 111 47 142 84z" />
    <glyph glyph-name="uni2215" unicode="&#x2215;" horiz-adv-x="111" 
d="M235 778h62l-421 -778h-63z" />
    </font>
</defs>
</svg>
